<?xml version="1.0" standalone="no"?>
<!DOCTYPE svg PUBLIC "-//W3C//DTD SVG 1.1//EN" "http://www.w3.org/Graphics/SVG/1.1/DTD/svg11.dtd" >
<svg xmlns="http://www.w3.org/2000/svg" xmlns:xlink="http://www.w3.org/1999/xlink" version="1.1">
<metadata>
Created by FontForge 20170731 at Tue Oct 10 12:45:33 2017
 By Aleksey,,,
(c) TIGHTYPE 2017
</metadata>
<defs>
<font id="Moderat-Bold" horiz-adv-x="531" >
  <font-face 
    font-family="Moderat"
    font-weight="700"
    font-stretch="normal"
    units-per-em="1000"
    panose-1="0 0 8 0 0 0 0 0 0 0"
    ascent="800"
    descent="-200"
    x-height="500"
    cap-height="700"
    bbox="-150 -349 1132 973"
    underline-thickness="50"
    underline-position="-200"
    unicode-range="U+0020-FB02"
  />
<missing-glyph horiz-adv-x="802" 
d="M761 350q0 -150 -105 -255t-255 -105t-255 106t-105 254q0 149 105.5 254.5t254.5 105.5q151 0 255.5 -105.5t104.5 -254.5zM213 533v-45h44v-128h46v128h44v45h-134zM455 533v-45h45v-128h45v128h45v45h-135zM401 81q109 0 187 76t81 183l-46 8q0 -92 -65 -156.5
t-157 -64.5q-91 0 -156 64.5t-65 156.5l-46 -8q3 -107 81 -183t186 -76z" />
    <glyph glyph-name="arrowleft" unicode="&#x3c;&#x2d;" horiz-adv-x="777" 
d="M753 371v-115h-544l184 -181l-80 -80l-300 313v12l300 312l80 -80l-183 -181h543z" />
    <glyph glyph-name="arrowright" unicode="&#x2d;&#x3e;" horiz-adv-x="775" 
d="M462 632l300 -312v-12l-300 -313l-80 80l184 181h-544v115h543l-183 181z" />
    <glyph glyph-name="fi" unicode="fi" horiz-adv-x="597" 
d="M474 560q-34 0 -58.5 24.5t-24.5 56.5q0 35 24.5 58.5t58.5 23.5t57.5 -23.5t23.5 -58.5q0 -33 -24 -57t-57 -24zM538 500v-500h-130v396h-173v-396h-121v396h-92v104h92v53q0 72 41.5 114.5t116.5 42.5q37 0 69 -13l-22 -99q-18 6 -29 6q-26 0 -40.5 -16t-14.5 -44v-44
h303z" />
    <glyph glyph-name="f_f" unicode="ff" horiz-adv-x="735" 
d="M558 529v-29h132v-104h-132v-396h-128v396h-183v-396h-128v396h-97v104h97v41q0 78 46 123.5t116 45.5q77 0 120 -36l-37 -101q-26 23 -59 23q-27 0 -42.5 -17t-15.5 -50v-29h183v41q0 78 46 123.5t116 45.5q77 0 120 -36l-37 -101q-26 23 -59 23q-27 0 -42.5 -17
t-15.5 -50z" />
    <glyph glyph-name="f_f_i" unicode="ffi" horiz-adv-x="907" 
d="M785 560q-34 0 -58.5 24.5t-24.5 56.5q0 35 24.5 58.5t58.5 23.5t57.5 -23.5t23.5 -58.5q0 -33 -24 -57t-57 -24zM849 500v-500h-130v396h-173v-396h-121v396h-178v-396h-128v396h-97v104h97v41q0 78 46 123.5t116 45.5q77 0 120 -36l-37 -101q-26 23 -59 23
q-27 0 -42.5 -17t-15.5 -50v-29h178v53q0 72 41.5 114.5t116.5 42.5q37 0 69 -13l-22 -99q-18 6 -29 6q-26 0 -40.5 -16t-14.5 -44v-44h303z" />
    <glyph glyph-name="f_f_j" unicode="ffj" horiz-adv-x="906" 
d="M783 560q-34 0 -58.5 24.5t-24.5 56.5q0 35 24.5 58.5t58.5 23.5t57.5 -23.5t23.5 -58.5q0 -33 -24 -57t-57 -24zM847 500v-541q0 -78 -46 -123.5t-116 -45.5q-77 0 -120 36l37 101q26 -23 59 -23q27 0 42.5 17t15.5 50v425h-173v-396h-121v396h-178v-396h-128v396h-97
v104h97v41q0 78 46 123.5t116 45.5q77 0 120 -36l-37 -101q-26 23 -59 23q-27 0 -42.5 -17t-15.5 -50v-29h178v53q0 72 41.5 114.5t116.5 42.5q37 0 69 -13l-22 -99q-18 6 -29 6q-26 0 -40.5 -16t-14.5 -44v-44h301z" />
    <glyph glyph-name="f_j" unicode="fj" horiz-adv-x="596" 
d="M472 560q-34 0 -58.5 24.5t-24.5 56.5q0 35 24.5 58.5t58.5 23.5t57.5 -23.5t23.5 -58.5q0 -33 -24 -57t-57 -24zM536 500v-541q0 -78 -46 -123.5t-116 -45.5q-77 0 -120 36l37 101q26 -23 59 -23q27 0 42.5 17t15.5 50v425h-173v-396h-121v396h-92v104h92v53
q0 72 41.5 114.5t116.5 42.5q37 0 69 -13l-22 -99q-18 6 -29 6q-26 0 -40.5 -16t-14.5 -44v-44h301z" />
    <glyph glyph-name=".notdef" horiz-adv-x="802" 
d="M761 350q0 -150 -105 -255t-255 -105t-255 106t-105 254q0 149 105.5 254.5t254.5 105.5q151 0 255.5 -105.5t104.5 -254.5zM213 533v-45h44v-128h46v128h44v45h-134zM455 533v-45h45v-128h45v128h45v45h-135zM401 81q109 0 187 76t81 183l-46 8q0 -92 -65 -156.5
t-157 -64.5q-91 0 -156 64.5t-65 156.5l-46 -8q3 -107 81 -183t186 -76z" />
    <glyph glyph-name=".null" horiz-adv-x="0" 
 />
    <glyph glyph-name="nonmarkingreturn" horiz-adv-x="333" 
 />
    <glyph glyph-name="space" unicode=" " horiz-adv-x="270" 
 />
    <glyph glyph-name="exclam" unicode="!" horiz-adv-x="252" 
d="M60 700h132l-20 -494h-90zM128 -6q-32 0 -55.5 23t-23.5 54q0 32 23.5 55t55.5 23q31 0 53.5 -23t22.5 -55q0 -31 -22.5 -54t-53.5 -23z" />
    <glyph glyph-name="quotedbl" unicode="&#x22;" horiz-adv-x="367" 
d="M148 602l-24 -145h-57l-24 146q-11 55 -11 77q0 32 17.5 49.5t45.5 17.5q29 0 46.5 -17.5t17.5 -49.5q0 -6 -11 -78zM324 602l-24 -145h-57l-24 146q-11 55 -11 77q0 32 17.5 49.5t45.5 17.5q29 0 46.5 -17.5t17.5 -49.5q0 -6 -11 -78z" />
    <glyph glyph-name="numbersign" unicode="#" horiz-adv-x="689" 
d="M666 425h-109l-30 -150h85v-107h-106l-34 -168h-116l34 168h-153l-34 -168h-115l34 168h-100v107h121l30 150h-97v107h118l34 168h115l-34 -168h153l34 168h116l-34 -168h88v-107zM411 275l30 150h-153l-30 -150h153z" />
    <glyph glyph-name="dollar" unicode="$" horiz-adv-x="561" 
d="M520 172q0 -75 -50 -121.5t-135 -57.5v-83h-106v84q-90 14 -139 68.5t-49 133.5h125q5 -45 38 -72.5t87 -27.5q45 0 71.5 19t26.5 54q0 13 -3 23.5t-13 20t-17 15t-29 15t-33.5 14.5t-43.5 17q-97 38 -144 77.5t-47 112.5q0 74 47 122t123 60v84h106v-86
q78 -16 122.5 -68.5t44.5 -112.5h-125q0 38 -28.5 60t-72.5 22q-39 0 -64 -20.5t-25 -52.5t25.5 -50.5t88.5 -41.5q114 -42 166.5 -86.5t52.5 -121.5z" />
    <glyph glyph-name="percent" unicode="%" horiz-adv-x="762" 
d="M191 350q-61 0 -105.5 44t-44.5 106t44.5 106t105.5 44t105.5 -44.5t44.5 -105.5t-44.5 -105.5t-105.5 -44.5zM648 640l-411 -640h-129l411 640h129zM191 448q24 0 38.5 14.5t14.5 37.5t-14.5 37.5t-38.5 14.5q-23 0 -37.5 -15t-14.5 -37t14.5 -37t37.5 -15zM571 -10
q-61 0 -105.5 44t-44.5 106t44.5 106t105.5 44t105.5 -44.5t44.5 -105.5t-44.5 -105.5t-105.5 -44.5zM571 88q24 0 38.5 14.5t14.5 37.5t-14.5 37.5t-38.5 14.5q-23 0 -37.5 -15t-14.5 -37t14.5 -37t37.5 -15z" />
    <glyph glyph-name="ampersand" unicode="&#x26;" horiz-adv-x="655" 
d="M635 0h-133l-71 82q-46 -47 -92 -69.5t-106 -22.5q-83 0 -137.5 47t-54.5 124q0 62 33.5 107.5t105.5 100.5q-30 33 -43 48.5t-29 50t-16 68.5q0 75 53.5 124.5t134.5 49.5q86 0 139 -45.5t53 -114.5q0 -42 -21 -79t-44.5 -58.5t-72.5 -59.5l92 -108l68 92h130l-110 -153
q-13 -17 -17 -22zM284 604q-34 0 -54 -20.5t-20 -50.5q0 -26 13.5 -48t41.5 -52q37 26 51.5 38t28 31t13.5 39q0 28 -21 45.5t-53 17.5zM241 102q56 0 118 62l-109 124q-48 -37 -69 -61t-21 -53q0 -31 23.5 -51.5t57.5 -20.5z" />
    <glyph glyph-name="quotesingle" unicode="'" horiz-adv-x="191" 
d="M148 602l-24 -145h-57l-24 146q-11 55 -11 77q0 32 17.5 49.5t45.5 17.5q29 0 46.5 -17.5t17.5 -49.5q0 -6 -11 -78z" />
    <glyph glyph-name="parenleft" unicode="(" horiz-adv-x="313" 
d="M300 -117l-82 -61q-79 88 -128 213t-49 275t49 275.5t128 213.5l82 -62q-142 -168 -142 -427q0 -257 142 -427z" />
    <glyph glyph-name="parenright" unicode=")" horiz-adv-x="313" 
d="M13 -117q142 170 142 427q0 259 -142 427l82 62q79 -88 128 -213.5t49 -275.5t-49 -275t-128 -213z" />
    <glyph glyph-name="asterisk" unicode="*" horiz-adv-x="384" 
d="M352 583l-94 -43l94 -43l-42 -74l-85 60l9 -103h-84l9 102l-84 -59l-43 74l94 43l-94 43l43 74l84 -60l-9 103h84l-9 -104l85 61z" />
    <glyph glyph-name="plus" unicode="+" horiz-adv-x="552" 
d="M502 333v-105h-168v-168h-114v168h-169v105h169v167h114v-167h168z" />
    <glyph glyph-name="comma" unicode="," horiz-adv-x="262" 
d="M129 150q38 0 60 -29.5t22 -75.5q0 -68 -36.5 -116.5t-85.5 -72.5l-28 33q65 55 68 106q-30 -5 -53.5 16t-23.5 60q0 36 22 57.5t55 21.5z" />
    <glyph glyph-name="hyphen" unicode="-" horiz-adv-x="405" 
d="M22 365h360v-108h-360v108z" />
    <glyph glyph-name="period" unicode="." horiz-adv-x="257" 
d="M130 -6q-32 0 -55.5 23t-23.5 54q0 32 23.5 55t55.5 23q31 0 53.5 -23t22.5 -55q0 -31 -22.5 -54t-53.5 -23z" />
    <glyph glyph-name="slash" unicode="/" horiz-adv-x="498" 
d="M484 750l-337 -800h-134l340 800h131z" />
    <glyph glyph-name="zero" unicode="0" horiz-adv-x="588" 
d="M296 -10q-117 0 -186 84.5t-69 246.5q0 161 68.5 245.5t185.5 84.5t184 -84.5t67 -246.5t-67 -246t-183 -84zM296 113q102 0 102 206q0 209 -103 209q-105 0 -105 -208q0 -207 106 -207z" />
    <glyph glyph-name="one" unicode="1" horiz-adv-x="357" 
d="M161 0v426h-139v107h65q89 0 89 78v29h121v-640h-136z" />
    <glyph glyph-name="two" unicode="2" horiz-adv-x="536" 
d="M335 253q-61 -39 -90 -68t-35 -63h279v-122h-448v47q0 170 168 276q99 62 119 81q29 27 29 58q0 33 -22.5 53t-61.5 20q-45 0 -68.5 -30t-25.5 -75h-137q0 85 60.5 153t174.5 68q95 0 156 -50.5t61 -140.5q0 -65 -39.5 -111.5t-119.5 -95.5z" />
    <glyph glyph-name="three" unicode="3" horiz-adv-x="546" 
d="M400 338q51 -19 78 -59t27 -95q0 -86 -61.5 -140t-166.5 -54q-112 0 -172 60t-64 156h126q3 -42 29 -69t73 -27q44 0 71 24.5t27 63.5q0 38 -28 63t-83 25h-31v107h36q43 0 68 19.5t25 53.5q0 32 -21 52t-56 20q-36 0 -57.5 -20.5t-25.5 -55.5h-128q0 83 63 136t154 53
q83 0 140 -46.5t57 -121.5q0 -89 -80 -136v-9z" />
    <glyph glyph-name="four" unicode="4" horiz-adv-x="583" 
d="M560 245v-112h-112v-133h-126v133h-300v74l275 434h151v-396h112zM178 245h144v233h-12z" />
    <glyph glyph-name="five" unicode="5" horiz-adv-x="552" 
d="M300 428q96 0 153.5 -60.5t57.5 -157.5q0 -99 -67 -159.5t-169 -60.5q-103 0 -166.5 58t-67.5 151h133q5 -43 31 -68.5t69 -25.5q44 0 72 28.5t28 75.5t-27 78.5t-72 31.5q-66 0 -96 -53l-124 35l33 340h391v-123h-273l-13 -123q37 33 107 33z" />
    <glyph glyph-name="six" unicode="6" horiz-adv-x="541" 
d="M308 409q76 0 134 -57t58 -150q0 -96 -64.5 -154t-163.5 -58q-104 0 -167.5 61t-63.5 164q0 96 84 222l136 204h156l-183 -249q26 17 74 17zM273 99q45 0 73 31t28 76q0 44 -28 74t-73 30q-46 0 -74 -30t-28 -74q0 -45 28.5 -76t73.5 -31z" />
    <glyph glyph-name="seven" unicode="7" horiz-adv-x="500" 
d="M41 641h436v-101q-97 -94 -159 -230.5t-65 -309.5h-137q1 95 20.5 183.5t50 153t58 107.5t53.5 71h-257v126z" />
    <glyph glyph-name="eight" unicode="8" horiz-adv-x="559" 
d="M400 343q53 -18 85.5 -61t32.5 -102q0 -87 -67 -138.5t-173 -51.5q-107 0 -172 51t-65 138q0 63 34.5 106t84.5 58v9q-35 16 -58.5 51t-23.5 78q0 72 59.5 121t143.5 49q83 0 142 -47t59 -122q0 -44 -23 -78.5t-59 -51.5v-9zM280 546q-34 0 -56.5 -20t-22.5 -53
q0 -34 23 -54.5t55 -20.5q33 0 56 20.5t23 54.5q0 32 -22 52.5t-56 20.5zM280 100q42 0 70 24t28 63t-27.5 66t-71.5 27t-71 -27t-27 -66t28 -63t71 -24z" />
    <glyph glyph-name="nine" unicode="9" horiz-adv-x="541" 
d="M240 224q-76 0 -134 57t-58 150q0 96 64.5 154t163.5 58q104 0 167.5 -61t63.5 -164q0 -96 -84 -222l-136 -204h-156l183 249q-26 -17 -74 -17zM275 534q-45 0 -73 -31t-28 -76q0 -44 28 -74t73 -30q46 0 74 30t28 74q0 45 -28.5 76t-73.5 31z" />
    <glyph glyph-name="colon" unicode=":" horiz-adv-x="257" 
d="M130 352q-32 0 -55.5 23t-23.5 54q0 32 23.5 55t55.5 23q31 0 53.5 -23t22.5 -55q0 -31 -22.5 -54t-53.5 -23zM130 -6q-32 0 -55.5 23t-23.5 54q0 32 23.5 55t55.5 23q31 0 53.5 -23t22.5 -55q0 -31 -22.5 -54t-53.5 -23z" />
    <glyph glyph-name="semicolon" unicode=";" horiz-adv-x="267" 
d="M132 361q-32 0 -55.5 23t-23.5 54q0 32 23.5 55t55.5 23q31 0 53.5 -23t22.5 -55q0 -31 -22.5 -54t-53.5 -23zM134 150q38 0 60 -29.5t22 -75.5q0 -68 -36.5 -116.5t-85.5 -72.5l-28 33q65 55 68 106q-30 -5 -53.5 16t-23.5 60q0 36 22 57.5t55 21.5z" />
    <glyph glyph-name="less" unicode="&#x3c;" horiz-adv-x="553" 
d="M492 590v-140l-294 -156v-8l294 -156v-140l-430 232v136z" />
    <glyph glyph-name="equal" unicode="=" horiz-adv-x="551" 
d="M46 450h460v-110h-460v110zM46 220h460v-110h-460v110z" />
    <glyph glyph-name="greater" unicode="&#x3e;" horiz-adv-x="553" 
d="M61 590l430 -232v-136l-430 -232v140l294 156v8l-294 156v140z" />
    <glyph glyph-name="question" unicode="?" horiz-adv-x="448" 
d="M130 241q0 59 16.5 103.5t65.5 84.5q36 29 49.5 41t24 29.5t10.5 36.5q0 30 -20 47t-55 17q-72 0 -82 -81h-117q0 77 49.5 134t150.5 57q90 0 142 -44.5t52 -119.5q0 -18 -3 -34.5t-10.5 -31.5t-12.5 -24.5t-18.5 -23.5t-18.5 -19.5t-21.5 -20t-19.5 -17.5
q-35 -33 -50.5 -65t-15.5 -78v-26h-116v35zM189 -6q-32 0 -55.5 23t-23.5 54q0 32 23.5 55t55.5 23q31 0 53.5 -23t22.5 -55q0 -31 -22.5 -54t-53.5 -23z" />
    <glyph glyph-name="at" unicode="@" horiz-adv-x="960" 
d="M480 710q187 0 313 -119.5t126 -307.5q0 -123 -51.5 -195.5t-138.5 -72.5q-99 0 -129 85q-18 -35 -55.5 -59.5t-95.5 -24.5q-86 0 -145.5 64.5t-59.5 168.5q0 111 58.5 180.5t147.5 69.5q94 0 135 -72h10l19 63h64v-307q0 -35 15.5 -52t39.5 -17q31 0 55 38t24 119
q0 157 -91.5 247.5t-241.5 90.5q-142 0 -236 -100t-94 -264q0 -150 99 -245t250 -95q103 0 193 59l40 -84q-92 -71 -241 -71q-122 0 -223.5 51t-163.5 151t-62 232q0 107 36.5 196.5t97.5 148t140 90.5t165 32zM468 123q46 0 74.5 36.5t28.5 93.5q0 60 -26 98t-78 38
q-49 0 -78.5 -38.5t-29.5 -94.5q0 -58 29.5 -95.5t79.5 -37.5z" />
    <glyph glyph-name="A" unicode="A" horiz-adv-x="678" 
d="M520 0l-49 154h-265l-49 -154h-144l237 700h178l236 -700h-144zM243 270h191l-90 283h-11z" />
    <glyph glyph-name="B" unicode="B" horiz-adv-x="595" 
d="M429 369q59 -17 97.5 -59.5t38.5 -115.5q0 -97 -67 -145.5t-165 -48.5h-273v700h250q96 0 158 -46t62 -131q0 -107 -101 -145v-9zM190 585v-166h112q46 0 71 22.5t25 62.5q0 37 -26 59t-67 22h-115zM307 115q58 0 90 25.5t32 68.5q0 44 -31.5 72t-86.5 28h-121v-194h117z
" />
    <glyph glyph-name="C" unicode="C" horiz-adv-x="719" 
d="M683 225q-20 -110 -102 -172.5t-198 -62.5q-157 0 -249.5 100t-92.5 260q0 158 91.5 259t238.5 101q115 0 197.5 -59t101.5 -177h-143q-14 50 -53.5 79t-100.5 29q-85 0 -135.5 -66t-50.5 -168q0 -105 52.5 -168t142.5 -63q58 0 100.5 29.5t58.5 78.5h142z" />
    <glyph glyph-name="D" unicode="D" horiz-adv-x="683" 
d="M290 700q163 0 257.5 -92t94.5 -256q0 -167 -94.5 -259.5t-257.5 -92.5h-230v700h230zM291 127q97 0 155.5 61.5t58.5 167.5q0 101 -58 159t-156 58h-93v-446h93z" />
    <glyph glyph-name="E" unicode="E" horiz-adv-x="556" 
d="M191 123h342v-123h-473v700h463v-123h-332v-164h286v-117h-286v-173z" />
    <glyph glyph-name="F" unicode="F" horiz-adv-x="548" 
d="M525 573h-330v-176h286v-121h-286v-276h-135v700h465v-127z" />
    <glyph glyph-name="G" unicode="G" horiz-adv-x="736" 
d="M358 379h316v-379h-92l-19 70h-11q-27 -30 -77 -55t-123 -25q-144 0 -227.5 96.5t-83.5 249.5q0 164 91.5 269t235.5 105q136 0 212.5 -64.5t87.5 -165.5h-140q-9 44 -50 74t-101 30q-91 0 -144 -68.5t-53 -174.5q0 -103 51.5 -165.5t152.5 -62.5q92 0 157 65v94h-183
v107z" />
    <glyph glyph-name="H" unicode="H" horiz-adv-x="675" 
d="M478 700h136v-700h-136v294h-282v-294h-136v700h136v-284h282v284z" />
    <glyph glyph-name="I" unicode="I" horiz-adv-x="262" 
d="M201 700v-700h-141v700h141z" />
    <glyph glyph-name="J" unicode="J" horiz-adv-x="525" 
d="M154 212q3 -43 25.5 -69.5t63.5 -26.5q40 0 64 27.5t24 81.5v475h134v-483q0 -107 -60.5 -167t-157.5 -60q-106 0 -164.5 60.5t-60.5 161.5h132z" />
    <glyph glyph-name="K" unicode="K" horiz-adv-x="627" 
d="M460 0l-222 294h-41v-294h-137v700h137v-274h41l193 274h154l-234 -335v-10l262 -355h-153z" />
    <glyph glyph-name="L" unicode="L" horiz-adv-x="567" 
d="M204 131h340v-131h-483v700h143v-569z" />
    <glyph glyph-name="M" unicode="M" horiz-adv-x="868" 
d="M807 700v-700h-130v482h-11l-166 -422h-133l-165 422h-11v-482h-131v700h178l191 -470h11l189 470h178z" />
    <glyph glyph-name="N" unicode="N" horiz-adv-x="697" 
d="M507 700h130v-700h-130l-305 455h-11v-455h-131v700h139l297 -452h11v452z" />
    <glyph glyph-name="O" unicode="O" horiz-adv-x="790" 
d="M396 -10q-153 0 -254 103t-101 257t100.5 257t253.5 103q152 0 253 -103t101 -257t-101 -257t-252 -103zM396 121q91 0 151 65.5t60 163.5t-60.5 163.5t-151.5 65.5t-152 -65.5t-61 -163.5t61 -163.5t153 -65.5z" />
    <glyph glyph-name="P" unicode="P" horiz-adv-x="609" 
d="M329 700q112 0 175.5 -62.5t63.5 -162.5q0 -107 -64 -167.5t-179 -60.5h-135v-247h-130v700h269zM315 368q57 0 87 28.5t30 78.5q0 46 -30 75t-83 29h-129v-211h125z" />
    <glyph glyph-name="Q" unicode="Q" horiz-adv-x="790" 
d="M596 -26q44 0 91 35l62 -84q-21 -22 -60 -40t-85 -18q-77 0 -134.5 32t-82.5 91q-150 3 -248 105.5t-98 254.5q0 154 100.5 257t253.5 103q152 0 253 -103t101 -257q0 -121 -64.5 -213t-171.5 -128q24 -35 83 -35zM182 350q0 -98 61 -163.5t153 -65.5q91 0 151 65.5
t60 163.5t-60.5 163.5t-151.5 65.5t-152 -65.5t-61 -163.5z" />
    <glyph glyph-name="R" unicode="R" horiz-adv-x="600" 
d="M577 0h-144l-140 258h-103v-258h-130v700h260q105 0 169.5 -59.5t64.5 -159.5q0 -68 -35 -120.5t-96 -79.5zM190 576v-195h117q51 0 81 27.5t30 70.5q0 45 -29.5 71t-81.5 26h-117z" />
    <glyph glyph-name="S" unicode="S" horiz-adv-x="586" 
d="M545 185q0 -95 -67 -145t-177 -50q-122 0 -190.5 66t-69.5 172h134q1 -56 33 -89t96 -33q45 0 74 20.5t29 59.5t-31.5 64t-109.5 52q-97 34 -150.5 81t-53.5 126q0 93 64 147t164 54q110 0 173.5 -61.5t64.5 -151.5h-124q-4 42 -32.5 69.5t-81.5 27.5q-41 0 -66.5 -20.5
t-25.5 -54.5t29.5 -57t99.5 -50q110 -42 164 -92t54 -135z" />
    <glyph glyph-name="T" unicode="T" horiz-adv-x="566" 
d="M543 700v-124h-194v-576h-134v576h-193v124h521z" />
    <glyph glyph-name="U" unicode="U" horiz-adv-x="694" 
d="M633 700v-410q0 -149 -79.5 -224.5t-205.5 -75.5q-127 0 -207.5 75.5t-80.5 224.5v410h142v-415q0 -77 39.5 -121.5t107.5 -44.5q67 0 105 44t38 122v415h141z" />
    <glyph glyph-name="V" unicode="V" horiz-adv-x="656" 
d="M499 700h144l-221 -700h-188l-221 700h145l166 -552h11z" />
    <glyph glyph-name="W" unicode="W" horiz-adv-x="898" 
d="M755 700h129l-130 -700h-187l-113 460h-11l-112 -460h-187l-131 700h131l94 -526h11l116 476h168l116 -476h10z" />
    <glyph glyph-name="X" unicode="X" horiz-adv-x="647" 
d="M478 0l-146 246h-11l-146 -246h-162l220 361l-208 339h159l136 -226h11l137 226h153l-208 -339l220 -361h-155z" />
    <glyph glyph-name="Y" unicode="Y" horiz-adv-x="656" 
d="M483 700h159l-243 -392v-308h-142v308l-244 392h159l150 -245h11z" />
    <glyph glyph-name="Z" unicode="Z" horiz-adv-x="599" 
d="M232 125h322v-125h-513v99l326 468v9h-308v124h486v-99l-313 -467v-9z" />
    <glyph glyph-name="bracketleft" unicode="[" horiz-adv-x="303" 
d="M60 773h214v-105h-102v-732h103v-105h-215v942z" />
    <glyph glyph-name="backslash" unicode="\" horiz-adv-x="498" 
d="M14 750h131l340 -800h-134z" />
    <glyph glyph-name="bracketright" unicode="]" horiz-adv-x="303" 
d="M243 773v-942h-215v105h103v732h-102v105h214z" />
    <glyph glyph-name="asciicircum" unicode="^" horiz-adv-x="539" 
d="M378 360l-101 206h-13l-102 -206h-130l166 340h144l165 -340h-129z" />
    <glyph glyph-name="underscore" unicode="_" horiz-adv-x="480" 
d="M22 0h435v-110h-435v110z" />
    <glyph glyph-name="grave" unicode="`" horiz-adv-x="323" 
d="M197 695l66 -140h-91l-111 140h136z" />
    <glyph glyph-name="a" unicode="a" 
d="M474 150q0 -24 9.5 -34t31.5 -10v-106h-23q-86 0 -109 65q-62 -75 -174 -75q-80 0 -128.5 38t-48.5 107q0 150 224 167l93 7v10q0 43 -22.5 68t-60.5 25q-41 0 -62.5 -24.5t-25.5 -55.5h-123q6 79 62 128.5t148 49.5q93 0 151 -53t58 -153v-154zM228 92q48 0 84.5 32
t36.5 86v10l-63 -5q-123 -11 -123 -72q0 -24 18 -37.5t47 -13.5z" />
    <glyph glyph-name="b" unicode="b" horiz-adv-x="586" 
d="M318 511q99 0 167 -72t68 -190q0 -116 -66.5 -187t-162.5 -71q-90 0 -142 67h-13l-15 -58h-99v712h127v-263q42 62 136 62zM302 107q54 0 88.5 40t34.5 104q0 63 -34.5 103t-88.5 40t-87 -40t-33 -103t33 -103.5t87 -40.5z" />
    <glyph glyph-name="c" unicode="c" horiz-adv-x="562" 
d="M530 176q-11 -83 -76.5 -134.5t-161.5 -51.5q-119 0 -189.5 73t-70.5 185t75 187t184 75q94 0 161 -54t76 -144h-129q-7 35 -35 59.5t-75 24.5q-57 0 -91.5 -40.5t-34.5 -107.5t33.5 -106.5t94.5 -39.5q41 0 69 20.5t38 53.5h132z" />
    <glyph glyph-name="d" unicode="d" horiz-adv-x="586" 
d="M404 712h127v-712h-99l-15 58h-13q-52 -67 -142 -67q-96 0 -162.5 71t-66.5 187q0 118 68 190t167 72q94 0 136 -62v263zM284 107q54 0 87 40.5t33 103.5t-33 103t-87 40t-88.5 -40t-34.5 -103q0 -64 34.5 -104t88.5 -40z" />
    <glyph glyph-name="e" unicode="e" horiz-adv-x="557" 
d="M400 158h123q-17 -79 -82 -123.5t-153 -44.5q-116 0 -186 72t-70 189q0 114 71 186.5t176 72.5q52 0 96.5 -16.5t80 -50.5t53 -92.5t11.5 -135.5h-363q17 -119 133 -119q37 0 67 16.5t43 45.5zM285 408q-47 0 -79 -26t-44 -73h238q-2 40 -33.5 69.5t-81.5 29.5z" />
    <glyph glyph-name="f" unicode="f" horiz-adv-x="424" 
d="M247 529v-29h132v-104h-132v-396h-128v396h-97v104h97v41q0 78 46 123.5t116 45.5q77 0 120 -36l-37 -101q-26 23 -59 23q-27 0 -42.5 -17t-15.5 -50z" />
    <glyph glyph-name="g" unicode="g" horiz-adv-x="544" 
d="M525 469q-21 -26 -78 -48q25 -41 25 -89q0 -74 -59 -118t-151 -44q-37 0 -66 7q-34 -12 -34 -31q0 -36 74 -36h79q92 0 138.5 -40.5t46.5 -109.5q0 -77 -62.5 -123.5t-170.5 -46.5q-111 0 -173 51.5t-62 125.5l70 59q-55 26 -55 85q0 65 74 99q-66 47 -66 127
q0 75 55 124.5t147 49.5q73 0 129 -32q40 23 79 68zM264 262q38 0 61 22.5t23 55.5q0 34 -23 57t-60 23q-39 0 -62 -22.5t-23 -57.5q0 -33 23 -55.5t61 -22.5zM373 -47q0 58 -82 58h-73l-60 -48q16 -72 115 -72q46 0 73 16.5t27 45.5z" />
    <glyph glyph-name="h" unicode="h" horiz-adv-x="599" 
d="M356 510q87 0 139.5 -55t52.5 -154v-301h-134v255q0 63 -30 97.5t-83 34.5q-46 0 -77 -32.5t-31 -95.5v-259h-138v710h138v-266h11q61 66 152 66z" />
    <glyph glyph-name="i" unicode="i" horiz-adv-x="248" 
d="M125 560q-34 0 -58.5 24.5t-24.5 56.5q0 35 24.5 58.5t58.5 23.5t57.5 -23.5t23.5 -58.5q0 -33 -24 -57t-57 -24zM189 500v-500h-130v500h130z" />
    <glyph glyph-name="j" unicode="j" horiz-adv-x="278" 
d="M154 560q-34 0 -58.5 24.5t-24.5 56.5q0 35 24.5 58.5t58.5 23.5t57.5 -23.5t23.5 -58.5q0 -33 -24 -57t-57 -24zM-27 -73q26 -23 59 -23q27 0 42.5 17t15.5 50v529h128v-541q0 -78 -46 -123.5t-116 -45.5q-77 0 -120 36z" />
    <glyph glyph-name="k" unicode="k" horiz-adv-x="536" 
d="M517 500l-201 -208l201 -292h-145l-141 203l-47 -49v-154h-129v710h129v-383h10l164 173h159z" />
    <glyph glyph-name="l" unicode="l" horiz-adv-x="242" 
d="M55 710h132v-710h-132v710z" />
    <glyph glyph-name="m" unicode="m" horiz-adv-x="855" 
d="M626 510q82 0 130 -54.5t48 -163.5v-292h-135v286q0 50 -24 77t-62 27q-36 0 -61.5 -28t-25.5 -78v-284h-134v283q0 51 -24 79t-60 28q-35 0 -61.5 -27.5t-26.5 -76.5v-286h-135v500h106l16 -60h11q19 30 54.5 50t82.5 20q50 0 87.5 -25.5t53.5 -60.5h11q46 86 149 86z
" />
    <glyph glyph-name="n" unicode="n" horiz-adv-x="589" 
d="M343 510q86 0 140.5 -59.5t54.5 -167.5v-283h-135v261q0 64 -29.5 97t-77.5 33q-44 0 -74.5 -32t-30.5 -95v-264h-136v500h106l17 -61h11q16 20 30 32.5t47.5 25.5t76.5 13z" />
    <glyph glyph-name="o" unicode="o" horiz-adv-x="592" 
d="M297 -10q-112 0 -188.5 73t-76.5 187t76 187t188 73t187.5 -72.5t75.5 -187.5q0 -114 -75 -187t-187 -73zM297 105q58 0 95 41.5t37 103.5t-37 103.5t-96 41.5t-96.5 -41.5t-37.5 -103.5t38 -103.5t97 -41.5z" />
    <glyph glyph-name="p" unicode="p" horiz-adv-x="585" 
d="M324 509q96 0 162.5 -71t66.5 -187q0 -118 -68 -190t-167 -72q-94 0 -136 62v-251h-127v700h99l15 -58h13q52 67 142 67zM302 106q54 0 88.5 40t34.5 103q0 64 -34.5 104t-88.5 40t-87 -40.5t-33 -103.5t33 -103t87 -40z" />
    <glyph glyph-name="q" unicode="q" horiz-adv-x="585" 
d="M431 500h99v-700h-127v251q-42 -62 -136 -62q-99 0 -167 72t-68 190q0 116 66.5 187t162.5 71q90 0 142 -67h13zM283 106q54 0 87 40t33 103t-33 103.5t-87 40.5t-88.5 -40t-34.5 -104q0 -63 34.5 -103t88.5 -40z" />
    <glyph glyph-name="r" unicode="r" horiz-adv-x="405" 
d="M345 510h36v-130q-27 6 -52 6q-60 0 -99.5 -41t-39.5 -125v-220h-135v500h106l18 -69h11q56 79 155 79z" />
    <glyph glyph-name="s" unicode="s" horiz-adv-x="479" 
d="M447 138q0 -71 -55 -109.5t-143 -38.5q-96 0 -154 48t-63 131h126q2 -40 29.5 -59.5t63.5 -19.5q29 0 48.5 12.5t19.5 35.5q0 26 -24 41.5t-75 28.5q-35 10 -59 19t-53 26t-44.5 44t-15.5 62q0 68 54.5 109.5t138.5 41.5q85 0 137.5 -44.5t57.5 -113.5h-121
q-3 26 -25 42.5t-55 16.5q-25 0 -41.5 -12t-16.5 -33q0 -22 22 -36t77 -30q83 -24 127 -60.5t44 -101.5z" />
    <glyph glyph-name="t" unicode="t" horiz-adv-x="397" 
d="M370 17q-44 -27 -98 -27q-152 0 -152 160v246h-98v95h31q38 0 58.5 18.5t20.5 51.5v65h118v-126h124v-104h-124v-234q0 -58 46 -58q22 0 47 14z" />
    <glyph glyph-name="u" unicode="u" horiz-adv-x="589" 
d="M248 -10q-87 0 -140.5 59t-53.5 168v283h135v-261q0 -64 29 -97t77 -33q44 0 73.5 31.5t29.5 95.5v264h135v-500h-105l-17 61h-11q-16 -20 -29.5 -32.5t-46.5 -25.5t-76 -13z" />
    <glyph glyph-name="v" unicode="v" horiz-adv-x="567" 
d="M414 500h134l-173 -500h-183l-173 500h134l126 -384h11z" />
    <glyph glyph-name="w" unicode="w" horiz-adv-x="763" 
d="M624 500h121l-122 -500h-153l-83 330h-11l-83 -330h-153l-121 500h120l79 -361h10l83 329h142l84 -329h11z" />
    <glyph glyph-name="x" unicode="x" horiz-adv-x="541" 
d="M374 0l-97 163h-11l-100 -163h-147l159 257l-150 243h146l91 -148h11l90 148h147l-149 -243l159 -257h-149z" />
    <glyph glyph-name="y" unicode="y" horiz-adv-x="579" 
d="M427 500h134l-179 -540q-27 -82 -74 -126t-133 -44t-132 46l53 92q34 -29 72 -29q28 0 51.5 20.5t33.5 51.5l10 29h-50l-194 500h140l138 -368h11z" />
    <glyph glyph-name="z" unicode="z" horiz-adv-x="476" 
d="M208 108h235v-108h-411v76l227 308v8h-216v108h392v-76l-227 -308v-8z" />
    <glyph glyph-name="braceleft" unicode="{" horiz-adv-x="283" 
d="M205 417q0 -76 -70 -110v-10q70 -34 70 -110v-215q0 -54 48 -54h16v-87h-42q-64 0 -98.5 32.5t-34.5 93.5v218q0 41 -16.5 61.5t-55.5 24.5v82q39 4 55.5 24.5t16.5 61.5v218q0 61 34.5 93.5t98.5 32.5h42v-87h-16q-48 0 -48 -54v-215z" />
    <glyph glyph-name="bar" unicode="|" horiz-adv-x="238" 
d="M178 770v-910h-118v910h118z" />
    <glyph glyph-name="braceright" unicode="}" horiz-adv-x="283" 
d="M78 417v215q0 54 -48 54h-16v87h42q64 0 98.5 -32.5t34.5 -93.5v-218q0 -41 16.5 -61.5t55.5 -24.5v-82q-39 -4 -55.5 -24.5t-16.5 -61.5v-218q0 -61 -34.5 -93.5t-98.5 -32.5h-42v87h16q48 0 48 54v215q0 76 70 110v10q-70 34 -70 110z" />
    <glyph glyph-name="asciitilde" unicode="~" horiz-adv-x="634" 
d="M573 332q-6 -21 -15 -39.5t-27.5 -44.5t-49 -41.5t-69.5 -15.5q-41 0 -73.5 18.5t-61 36.5t-59.5 18q-51 0 -79 -63l-78 28q45 141 162 141q51 0 104 -36.5t89 -36.5q48 0 80 63z" />
    <glyph glyph-name="uni00A0" unicode="&#xa0;" horiz-adv-x="250" 
 />
    <glyph glyph-name="exclamdown" unicode="&#xa1;" horiz-adv-x="252" 
d="M124 506q32 0 55.5 -23t23.5 -54q0 -32 -23.5 -55t-55.5 -23q-31 0 -53.5 23t-22.5 55q0 31 22.5 54t53.5 23zM192 -200h-132l20 494h90z" />
    <glyph glyph-name="cent" unicode="&#xa2;" horiz-adv-x="537" 
d="M505 251q-9 -67 -56 -113t-120 -59v-79h-107v80q-89 17 -139.5 82.5t-50.5 157.5q0 91 53 157.5t137 84.5v79h107v-78q72 -14 120 -62.5t55 -120.5h-123q-7 33 -33.5 56.5t-70.5 23.5q-55 0 -87.5 -38.5t-32.5 -101.5q0 -64 31.5 -101.5t89.5 -37.5q40 0 66.5 19.5
t35.5 50.5h125z" />
    <glyph glyph-name="sterling" unicode="&#xa3;" horiz-adv-x="544" 
d="M221 112v-9h271v-103h-451v82q130 42 130 156q0 8 -2 24h-128v85h89q-17 25 -24.5 38t-16 37.5t-8.5 49.5q0 81 58 129.5t141 48.5q53 0 96.5 -17.5t68.5 -45t39.5 -55t18.5 -52.5l-103 -28q-6 16 -11.5 26t-19 27.5t-34.5 27t-49 9.5q-40 0 -63.5 -21t-23.5 -57
q0 -20 7.5 -37t28.5 -45t26 -35h199l-21 -85h-146v-12q0 -86 -72 -138z" />
    <glyph glyph-name="currency" unicode="&#xa4;" horiz-adv-x="590" 
d="M513 250q0 -60 -31 -111l75 -75l-78 -77l-74 75q-52 -29 -109 -29q-59 0 -110 30l-77 -76l-77 77l76 76q-30 51 -30 110t29 111l-75 75l77 77l76 -75q49 29 111 29q57 0 109 -29l74 75l78 -77l-74 -74q30 -52 30 -112zM296 150q41 0 70 30t29 70t-29 70t-70 30t-70.5 -30
t-29.5 -70t29.5 -70t70.5 -30z" />
    <glyph glyph-name="yen" unicode="&#xa5;" horiz-adv-x="569" 
d="M555 640l-165 -249h114v-85h-158v-50h158v-85h-158v-171h-124v171h-157v85h157v50h-157v85h113l-165 249h135l131 -211h10l131 211h135z" />
    <glyph glyph-name="brokenbar" unicode="&#xa6;" horiz-adv-x="238" 
d="M60 770h118v-355h-118v355zM60 -140v355h118v-355h-118z" />
    <glyph glyph-name="section" unicode="&#xa7;" horiz-adv-x="581" 
d="M427 95q94 -38 94 -131q0 -83 -61 -128.5t-159 -45.5q-109 0 -177.5 58.5t-67.5 148.5h121q4 -45 37.5 -71t83.5 -26q43 0 69.5 18t26.5 49q0 64 -128 84q-101 16 -163 66t-62 135q0 58 35 99t79 54q-95 38 -95 132q0 83 61 128t159 45q109 0 178 -58.5t68 -148.5h-122
q-3 46 -36.5 72t-84.5 26q-42 0 -69 -18.5t-27 -49.5q0 -64 130 -84q101 -16 162 -66t61 -135q0 -58 -35 -99t-78 -54zM299 153q51 0 82 26t31 69q0 45 -37.5 72t-91.5 27q-52 0 -83 -25.5t-31 -69.5q0 -45 38 -72t92 -27z" />
    <glyph glyph-name="dieresis" unicode="&#xa8;" horiz-adv-x="458" 
d="M132 544q-29 0 -50 21t-21 50t21 49t50 20t49 -20t20 -49t-20.5 -50t-48.5 -21zM328 544q-28 0 -49 21t-21 50t20.5 49t49.5 20t49.5 -20t20.5 -49t-20.5 -50t-49.5 -21z" />
    <glyph glyph-name="copyright" unicode="&#xa9;" horiz-adv-x="802" 
d="M401 -10q-149 0 -254.5 105t-105.5 255t105.5 255t254.5 105q148 0 254 -105.5t106 -254.5t-106 -254.5t-254 -105.5zM401 63q118 0 201.5 82.5t83.5 204.5t-83.5 204.5t-201.5 82.5t-201 -82.5t-83 -204.5t83 -204.5t201 -82.5zM576 305q-9 -73 -56 -108t-117 -35
q-75 0 -128.5 50t-53.5 136t53 136t126 50q66 0 115 -37.5t57 -110.5h-97q-5 26 -25.5 41.5t-49.5 15.5q-32 0 -56.5 -25.5t-24.5 -69.5t25 -70.5t62 -26.5q58 0 72 54h98z" />
    <glyph glyph-name="guillemotleft" unicode="&#xab;" horiz-adv-x="559" 
d="M144 502h144l-133 -202l133 -202h-144l-131 202zM383 502h144l-133 -202l133 -202h-144l-131 202z" />
    <glyph glyph-name="logicalnot" unicode="&#xac;" horiz-adv-x="579" 
d="M517 136h-110v188h-346v101h456v-289z" />
    <glyph glyph-name="uni00AD" unicode="&#xad;" horiz-adv-x="405" 
d="M22 365h360v-108h-360v108z" />
    <glyph glyph-name="registered" unicode="&#xae;" horiz-adv-x="802" 
d="M401 710q148 0 254 -105.5t106 -254.5t-106 -254.5t-254 -105.5q-149 0 -254.5 105t-105.5 255t105.5 255t254.5 105zM401 63q118 0 201.5 82.5t83.5 204.5t-83.5 204.5t-201.5 82.5t-201 -82.5t-83 -204.5t83 -204.5t201 -82.5zM550 411q0 -70 -65 -99l74 -141h-91
l-66 127h-36v-127h-85v360h132q69 0 103 -34.5t34 -85.5zM366 457v-85h54q47 0 47 43q0 42 -51 42h-50z" />
    <glyph glyph-name="macron" unicode="&#xaf;" horiz-adv-x="450" 
d="M60 656h329v-87h-329v87z" />
    <glyph glyph-name="degree" unicode="&#xb0;" horiz-adv-x="364" 
d="M182 410q-62 0 -106 44t-44 106t44 106t106 44q61 0 105.5 -44.5t44.5 -105.5t-44.5 -105.5t-105.5 -44.5zM182 508q24 0 38.5 14.5t14.5 37.5t-14.5 37.5t-38.5 14.5q-22 0 -37 -15t-15 -37t15 -37t37 -15z" />
    <glyph glyph-name="plusminus" unicode="&#xb1;" horiz-adv-x="554" 
d="M335 413h157v-101h-157v-147h-115v147h-159v101h159v145h115v-145zM61 0v106h431v-106h-431z" />
    <glyph glyph-name="uni00B2" unicode="&#xb2;" horiz-adv-x="338" 
d="M212 497q-85 -48 -86 -83h178v-73h-273v28q0 103 95 162q9 6 29.5 17t28 16t18.5 13.5t14.5 16.5t3.5 18q0 19 -12.5 31.5t-34.5 12.5q-26 0 -40.5 -16.5t-14.5 -41.5h-86q0 51 37.5 92t109.5 41q53 0 90.5 -30.5t37.5 -80.5q0 -31 -17 -57.5t-33.5 -38t-44.5 -27.5z" />
    <glyph glyph-name="uni00B3" unicode="&#xb3;" horiz-adv-x="346" 
d="M245 542q32 -9 51 -34t19 -57q0 -52 -39 -84t-110 -32t-106.5 36.5t-38.5 94.5h80q7 -62 68 -62q29 0 46 14t17 37q0 26 -20.5 40.5t-56.5 14.5h-16v67h21q28 0 44 11t16 30q0 20 -13.5 31t-35.5 11q-46 0 -53 -44h-81q0 50 38 82t97 32q56 0 93 -28t37 -71
q0 -53 -57 -82v-7z" />
    <glyph glyph-name="acute" unicode="&#xb4;" horiz-adv-x="323" 
d="M126 695h136l-111 -140h-91z" />
    <glyph glyph-name="uni00B5" unicode="&#xb5;" horiz-adv-x="590" 
d="M399 500h135v-500h-105l-17 61h-11q-16 -20 -29.5 -32.5t-46.5 -25.5t-76 -13q-35 0 -68 11v-201h-125v389q-1 9 -1 28v283h135v-261q0 -64 29 -97t77 -33q44 0 73.5 31.5t29.5 95.5v264z" />
    <glyph glyph-name="paragraph" unicode="&#xb6;" horiz-adv-x="628" 
d="M32 512q0 83 59 135.5t148 52.5h366v-106h-77v-794h-106v794h-77v-794h-106v523q-87 0 -147 52.5t-60 136.5z" />
    <glyph glyph-name="periodcentered" unicode="&#xb7;" horiz-adv-x="200" 
d="M101 233q-32 0 -55.5 23t-23.5 54q0 32 23.5 55t55.5 23q31 0 53.5 -23t22.5 -55q0 -31 -22.5 -54t-53.5 -23z" />
    <glyph glyph-name="cedilla" unicode="&#xb8;" horiz-adv-x="334" 
d="M133 4h78l-34 -47q37 7 67 -17t30 -64t-27.5 -63t-77.5 -23q-33 0 -59 14.5t-35.5 26.5t-13.5 22l50 30q20 -33 55 -33q38 0 38 31q0 13 -10.5 21t-29.5 8q-17 0 -31 -10l-41 43z" />
    <glyph glyph-name="uni00B9" unicode="&#xb9;" horiz-adv-x="257" 
d="M119 340v240h-93v74h54q43 0 43 44v27h83v-385h-87z" />
    <glyph glyph-name="guillemotright" unicode="&#xbb;" horiz-adv-x="559" 
d="M176 96h-144l133 202l-133 202h144l131 -202zM415 96h-144l133 202l-133 202h144l131 -202z" />
    <glyph glyph-name="onequarter" unicode="&#xbc;" horiz-adv-x="767" 
d="M119 255v240h-93v74h54q43 0 43 44v27h83v-385h-87zM674 640l-498 -640h-100l498 640h100zM746 149v-68h-67v-81h-75v81h-185v43l152 261h108v-236h67zM511 149h93v145h-7z" />
    <glyph glyph-name="onehalf" unicode="&#xbd;" horiz-adv-x="789" 
d="M119 255v240h-93v74h54q43 0 43 44v27h83v-385h-87zM674 640l-498 -640h-100l498 640h100zM663 156q-85 -48 -86 -83h178v-73h-273v28q0 103 95 162q9 6 29.5 17t28 16t18.5 13.5t14.5 16.5t3.5 18q0 19 -12.5 31.5t-34.5 12.5q-26 0 -40.5 -16.5t-14.5 -41.5h-86
q0 51 37.5 92t109.5 41q53 0 90.5 -30.5t37.5 -80.5q0 -31 -17 -57.5t-33.5 -38t-44.5 -27.5z" />
    <glyph glyph-name="threequarters" unicode="&#xbe;" horiz-adv-x="831" 
d="M245 457q32 -9 51 -34t19 -57q0 -52 -39 -84t-110 -32t-106.5 36.5t-38.5 94.5h80q7 -62 68 -62q29 0 46 14t17 37q0 26 -20.5 40.5t-56.5 14.5h-16v67h21q28 0 44 11t16 30q0 20 -13.5 31t-35.5 11q-46 0 -53 -44h-81q0 50 38 82t97 32q56 0 93 -28t37 -71
q0 -54 -57 -82v-7zM738 640l-498 -640h-100l498 640h100zM810 149v-68h-67v-81h-75v81h-185v43l152 261h108v-236h67zM575 149h93v145h-7z" />
    <glyph glyph-name="questiondown" unicode="&#xbf;" horiz-adv-x="448" 
d="M259 506q32 0 55.5 -23t23.5 -54q0 -32 -23.5 -55t-55.5 -23q-31 0 -53.5 23t-22.5 55q0 31 22.5 54t53.5 23zM318 259q0 -59 -16.5 -103.5t-65.5 -84.5q-36 -29 -49.5 -41t-24 -29.5t-10.5 -36.5q0 -30 20 -47t55 -17q72 0 82 81h117q0 -77 -49.5 -134t-150.5 -57
q-90 0 -142 44.5t-52 119.5q0 18 3 34.5t10.5 31.5t12.5 24.5t18.5 23.5t18.5 19.5t21.5 20t19.5 17.5q35 33 50.5 65t15.5 78v26h116v-35z" />
    <glyph glyph-name="Agrave" unicode="&#xc0;" horiz-adv-x="678" 
d="M393 754h-95l-117 147h143zM520 0l-49 154h-265l-49 -154h-144l237 700h178l236 -700h-144zM243 270h191l-90 283h-11z" />
    <glyph glyph-name="Aacute" unicode="&#xc1;" horiz-adv-x="678" 
d="M497 901l-117 -147h-95l69 147h143zM520 0l-49 154h-265l-49 -154h-144l237 700h178l236 -700h-144zM243 270h191l-90 283h-11z" />
    <glyph glyph-name="Acircumflex" unicode="&#xc2;" horiz-adv-x="678" 
d="M332 840l-54 -73h-115l123 151h104l123 -151h-114l-55 73h-12zM520 0l-49 154h-265l-49 -154h-144l237 700h178l236 -700h-144zM243 270h191l-90 283h-11z" />
    <glyph glyph-name="Atilde" unicode="&#xc3;" horiz-adv-x="678" 
d="M270 806q-37 0 -58 -47l-72 37q13 39 43.5 71t79.5 32q41 0 83 -25.5t62 -25.5q37 0 59 47l71 -38q-12 -39 -43 -71.5t-81 -32.5q-41 0 -82 26.5t-62 26.5zM520 0l-49 154h-265l-49 -154h-144l237 700h178l236 -700h-144zM243 270h191l-90 283h-11z" />
    <glyph glyph-name="Adieresis" unicode="&#xc4;" horiz-adv-x="678" 
d="M223 753q-32 0 -55 22.5t-23 54.5q0 33 23 55.5t55 22.5q31 0 54 -22.5t23 -55.5q0 -31 -23 -54t-54 -23zM456 753q-31 0 -54 23t-23 54q0 33 23 55.5t54 22.5q32 0 54.5 -22.5t22.5 -55.5q0 -32 -22.5 -54.5t-54.5 -22.5zM520 0l-49 154h-265l-49 -154h-144l237 700h178
l236 -700h-144zM243 270h191l-90 283h-11z" />
    <glyph glyph-name="Aring" unicode="&#xc5;" horiz-adv-x="678" 
d="M520 0l-49 154h-265l-49 -154h-144l226 667q-22 30 -22 68q0 50 36 85.5t86 35.5t87 -36t37 -85q0 -37 -23 -70l224 -665h-144zM340 773q-15 0 -25.5 -11.5t-10.5 -26.5q0 -12 8 -22t20 -13h16q13 3 21 13t8 22q0 15 -11 26.5t-26 11.5zM243 270h191l-90 283h-11z" />
    <glyph glyph-name="AE" unicode="&#xc6;" horiz-adv-x="985" 
d="M620 123h342v-123h-473v157h-240l-85 -157h-151l378 700h561v-123h-332v-164h286v-117h-286v-173zM315 278h174v296h-13z" />
    <glyph glyph-name="Ccedilla" unicode="&#xc7;" horiz-adv-x="719" 
d="M683 225q-18 -103 -92 -164.5t-179 -69.5l-26 -35q39 7 69.5 -17.5t30.5 -66.5t-28 -65.5t-80 -23.5q-34 0 -61 15t-36 27t-15 23l52 31q20 -34 57 -34q39 0 39 32q0 30 -41 30q-18 0 -32 -10l-43 44l35 52q-136 16 -214 113t-78 244q0 158 91.5 259t238.5 101
q115 0 197.5 -59t101.5 -177h-143q-14 50 -53.5 79t-100.5 29q-85 0 -135.5 -66t-50.5 -168q0 -105 52.5 -168t142.5 -63q58 0 100.5 29.5t58.5 78.5h142z" />
    <glyph glyph-name="Egrave" unicode="&#xc8;" horiz-adv-x="556" 
d="M277 901l69 -147h-95l-117 147h143zM191 123h342v-123h-473v700h463v-123h-332v-164h286v-117h-286v-173z" />
    <glyph glyph-name="Eacute" unicode="&#xc9;" horiz-adv-x="556" 
d="M307 901h143l-117 -147h-95zM191 123h342v-123h-473v700h463v-123h-332v-164h286v-117h-286v-173z" />
    <glyph glyph-name="Ecircumflex" unicode="&#xca;" horiz-adv-x="556" 
d="M231 767h-115l123 151h104l123 -151h-114l-55 73h-12zM191 123h342v-123h-473v700h463v-123h-332v-164h286v-117h-286v-173z" />
    <glyph glyph-name="Edieresis" unicode="&#xcb;" horiz-adv-x="556" 
d="M176 753q-32 0 -55 22.5t-23 54.5q0 33 23 55.5t55 22.5q31 0 54 -22.5t23 -55.5q0 -31 -23 -54t-54 -23zM409 753q-31 0 -54 23t-23 54q0 33 23 55.5t54 22.5q32 0 54.5 -22.5t22.5 -55.5q0 -32 -22.5 -54.5t-54.5 -22.5zM191 123h342v-123h-473v700h463v-123h-332v-164
h286v-117h-286v-173z" />
    <glyph glyph-name="Igrave" unicode="&#xcc;" horiz-adv-x="262" 
d="M116 901l69 -147h-95l-117 147h143zM201 700v-700h-141v700h141z" />
    <glyph glyph-name="Iacute" unicode="&#xcd;" horiz-adv-x="262" 
d="M146 901h143l-117 -147h-95zM201 700v-700h-141v700h141z" />
    <glyph glyph-name="Icircumflex" unicode="&#xce;" horiz-adv-x="262" 
d="M70 767h-115l123 151h104l123 -151h-114l-55 73h-12zM201 700v-700h-141v700h141z" />
    <glyph glyph-name="Idieresis" unicode="&#xcf;" horiz-adv-x="262" 
d="M15 753q-32 0 -55 22.5t-23 54.5q0 33 23 55.5t55 22.5q31 0 54 -22.5t23 -55.5q0 -31 -23 -54t-54 -23zM248 753q-31 0 -54 23t-23 54q0 33 23 55.5t54 22.5q32 0 54.5 -22.5t22.5 -55.5q0 -32 -22.5 -54.5t-54.5 -22.5zM201 700v-700h-141v700h141z" />
    <glyph glyph-name="Eth" unicode="&#xd0;" horiz-adv-x="683" 
d="M290 700q163 0 257.5 -92t94.5 -256q0 -167 -94.5 -259.5t-257.5 -92.5h-230v302h-99v99h99v299h230zM291 127q97 0 155.5 61.5t58.5 167.5q0 101 -58 159t-156 58h-93v-172h165v-99h-165v-175h93z" />
    <glyph glyph-name="Ntilde" unicode="&#xd1;" horiz-adv-x="697" 
d="M548 857q-12 -39 -43 -71.5t-81 -32.5q-41 0 -82 26.5t-62 26.5q-37 0 -58 -47l-72 37q13 39 43.5 71t79.5 32q41 0 83 -25.5t62 -25.5q37 0 59 47zM507 700h130v-700h-130l-305 455h-11v-455h-131v700h139l297 -452h11v452z" />
    <glyph glyph-name="Ograve" unicode="&#xd2;" horiz-adv-x="790" 
d="M380 901l69 -147h-95l-117 147h143zM396 -10q-153 0 -254 103t-101 257t100.5 257t253.5 103q152 0 253 -103t101 -257t-101 -257t-252 -103zM396 121q91 0 151 65.5t60 163.5t-60.5 163.5t-151.5 65.5t-152 -65.5t-61 -163.5t61 -163.5t153 -65.5z" />
    <glyph glyph-name="Oacute" unicode="&#xd3;" horiz-adv-x="790" 
d="M410 901h143l-117 -147h-95zM396 -10q-153 0 -254 103t-101 257t100.5 257t253.5 103q152 0 253 -103t101 -257t-101 -257t-252 -103zM396 121q91 0 151 65.5t60 163.5t-60.5 163.5t-151.5 65.5t-152 -65.5t-61 -163.5t61 -163.5t153 -65.5z" />
    <glyph glyph-name="Ocircumflex" unicode="&#xd4;" horiz-adv-x="790" 
d="M334 767h-115l123 151h104l123 -151h-114l-55 73h-12zM396 -10q-153 0 -254 103t-101 257t100.5 257t253.5 103q152 0 253 -103t101 -257t-101 -257t-252 -103zM396 121q91 0 151 65.5t60 163.5t-60.5 163.5t-151.5 65.5t-152 -65.5t-61 -163.5t61 -163.5t153 -65.5z" />
    <glyph glyph-name="Otilde" unicode="&#xd5;" horiz-adv-x="790" 
d="M594 857q-12 -39 -43 -71.5t-81 -32.5q-41 0 -82 26.5t-62 26.5q-37 0 -58 -47l-72 37q13 39 43.5 71t79.5 32q41 0 83 -25.5t62 -25.5q37 0 59 47zM396 -10q-153 0 -254 103t-101 257t100.5 257t253.5 103q152 0 253 -103t101 -257t-101 -257t-252 -103zM396 121
q91 0 151 65.5t60 163.5t-60.5 163.5t-151.5 65.5t-152 -65.5t-61 -163.5t61 -163.5t153 -65.5z" />
    <glyph glyph-name="Odieresis" unicode="&#xd6;" horiz-adv-x="790" 
d="M279 753q-32 0 -55 22.5t-23 54.5q0 33 23 55.5t55 22.5q31 0 54 -22.5t23 -55.5q0 -31 -23 -54t-54 -23zM512 753q-31 0 -54 23t-23 54q0 33 23 55.5t54 22.5q32 0 54.5 -22.5t22.5 -55.5q0 -32 -22.5 -54.5t-54.5 -22.5zM396 -10q-153 0 -254 103t-101 257t100.5 257
t253.5 103q152 0 253 -103t101 -257t-101 -257t-252 -103zM396 121q91 0 151 65.5t60 163.5t-60.5 163.5t-151.5 65.5t-152 -65.5t-61 -163.5t61 -163.5t153 -65.5z" />
    <glyph glyph-name="multiply" unicode="&#xd7;" horiz-adv-x="567" 
d="M507 421l-146 -141l146 -141l-76 -76l-147 142l-147 -142l-77 76l146 141l-146 141l76 76l148 -143l148 143z" />
    <glyph glyph-name="Oslash" unicode="&#xd8;" horiz-adv-x="790" 
d="M643 612q106 -104 106 -262q0 -154 -101 -257t-252 -103q-89 0 -163 37l-39 -55l-84 62l37 53q-106 104 -106 263q0 154 100.5 257t253.5 103q89 0 161 -37l37 53l86 -63zM182 350q0 -84 46 -146l250 358q-39 17 -83 17q-91 0 -152 -65.5t-61 -163.5zM396 121
q91 0 151 65.5t60 163.5q0 85 -46 145l-250 -357q40 -17 85 -17z" />
    <glyph glyph-name="Ugrave" unicode="&#xd9;" horiz-adv-x="694" 
d="M332 901l69 -147h-95l-117 147h143zM633 700v-410q0 -149 -79.5 -224.5t-205.5 -75.5q-127 0 -207.5 75.5t-80.5 224.5v410h142v-415q0 -77 39.5 -121.5t107.5 -44.5q67 0 105 44t38 122v415h141z" />
    <glyph glyph-name="Uacute" unicode="&#xda;" horiz-adv-x="694" 
d="M362 901h143l-117 -147h-95zM633 700v-410q0 -149 -79.5 -224.5t-205.5 -75.5q-127 0 -207.5 75.5t-80.5 224.5v410h142v-415q0 -77 39.5 -121.5t107.5 -44.5q67 0 105 44t38 122v415h141z" />
    <glyph glyph-name="Ucircumflex" unicode="&#xdb;" horiz-adv-x="694" 
d="M286 767h-115l123 151h104l123 -151h-114l-55 73h-12zM633 700v-410q0 -149 -79.5 -224.5t-205.5 -75.5q-127 0 -207.5 75.5t-80.5 224.5v410h142v-415q0 -77 39.5 -121.5t107.5 -44.5q67 0 105 44t38 122v415h141z" />
    <glyph glyph-name="Udieresis" unicode="&#xdc;" horiz-adv-x="694" 
d="M231 753q-32 0 -55 22.5t-23 54.5q0 33 23 55.5t55 22.5q31 0 54 -22.5t23 -55.5q0 -31 -23 -54t-54 -23zM464 753q-31 0 -54 23t-23 54q0 33 23 55.5t54 22.5q32 0 54.5 -22.5t22.5 -55.5q0 -32 -22.5 -54.5t-54.5 -22.5zM633 700v-410q0 -149 -79.5 -224.5
t-205.5 -75.5q-127 0 -207.5 75.5t-80.5 224.5v410h142v-415q0 -77 39.5 -121.5t107.5 -44.5q67 0 105 44t38 122v415h141z" />
    <glyph glyph-name="Yacute" unicode="&#xdd;" horiz-adv-x="656" 
d="M343 901h143l-117 -147h-95zM483 700h159l-243 -392v-308h-142v308l-244 392h159l150 -245h11z" />
    <glyph glyph-name="Thorn" unicode="&#xde;" horiz-adv-x="609" 
d="M328 581q112 0 175.5 -62.5t63.5 -162.5q0 -107 -64 -167.5t-179 -60.5h-135v-128h-129v700h129v-119h139zM314 249q57 0 87 28.5t30 78.5q0 46 -30 75t-83 29h-129v-211h125z" />
    <glyph glyph-name="germandbls" unicode="&#xdf;" horiz-adv-x="576" 
d="M388 385q158 -49 158 -202q0 -88 -52.5 -140.5t-138.5 -52.5q-91 0 -142 55l48 80q36 -28 74 -28q39 0 65 26.5t26 75.5q0 58 -38 89t-103 31h-43v113h28q44 0 69.5 23.5t25.5 60.5q0 34 -24 57.5t-64 23.5t-65.5 -30.5t-25.5 -81.5v-485h-131v488q0 102 58 162t159 60
q102 0 159.5 -48.5t57.5 -121.5q0 -103 -101 -146v-9z" />
    <glyph glyph-name="agrave" unicode="&#xe0;" 
d="M311 555h-91l-111 140h136zM474 150q0 -24 9.5 -34t31.5 -10v-106h-23q-86 0 -109 65q-62 -75 -174 -75q-80 0 -128.5 38t-48.5 107q0 150 224 167l93 7v10q0 43 -22.5 68t-60.5 25q-41 0 -62.5 -24.5t-25.5 -55.5h-123q6 79 62 128.5t148 49.5q93 0 151 -53t58 -153
v-154zM228 92q48 0 84.5 32t36.5 86v10l-63 -5q-123 -11 -123 -72q0 -24 18 -37.5t47 -13.5z" />
    <glyph glyph-name="aacute" unicode="&#xe1;" 
d="M420 695l-111 -140h-91l66 140h136zM474 150q0 -24 9.5 -34t31.5 -10v-106h-23q-86 0 -109 65q-62 -75 -174 -75q-80 0 -128.5 38t-48.5 107q0 150 224 167l93 7v10q0 43 -22.5 68t-60.5 25q-41 0 -62.5 -24.5t-25.5 -55.5h-123q6 79 62 128.5t148 49.5q93 0 151 -53
t58 -153v-154zM228 92q48 0 84.5 32t36.5 86v10l-63 -5q-123 -11 -123 -72q0 -24 18 -37.5t47 -13.5z" />
    <glyph glyph-name="acircumflex" unicode="&#xe2;" 
d="M258 623l-53 -72h-113l121 149h102l121 -149h-112l-54 72h-12zM474 150q0 -24 9.5 -34t31.5 -10v-106h-23q-86 0 -109 65q-62 -75 -174 -75q-80 0 -128.5 38t-48.5 107q0 150 224 167l93 7v10q0 43 -22.5 68t-60.5 25q-41 0 -62.5 -24.5t-25.5 -55.5h-123q6 79 62 128.5
t148 49.5q93 0 151 -53t58 -153v-154zM228 92q48 0 84.5 32t36.5 86v10l-63 -5q-123 -11 -123 -72q0 -24 18 -37.5t47 -13.5z" />
    <glyph glyph-name="atilde" unicode="&#xe3;" 
d="M200 597q-35 0 -56 -45l-68 36q12 37 41 67.5t76 30.5q39 0 78.5 -24.5t59.5 -24.5q36 0 56 45l68 -36q-12 -37 -41.5 -68t-76.5 -31q-39 0 -78 25t-59 25zM474 150q0 -24 9.5 -34t31.5 -10v-106h-23q-86 0 -109 65q-62 -75 -174 -75q-80 0 -128.5 38t-48.5 107
q0 150 224 167l93 7v10q0 43 -22.5 68t-60.5 25q-41 0 -62.5 -24.5t-25.5 -55.5h-123q6 79 62 128.5t148 49.5q93 0 151 -53t58 -153v-154zM228 92q48 0 84.5 32t36.5 86v10l-63 -5q-123 -11 -123 -72q0 -24 18 -37.5t47 -13.5z" />
    <glyph glyph-name="adieresis" unicode="&#xe4;" 
d="M168 544q-29 0 -50 21t-21 50t21 49t50 20t49 -20t20 -49t-20.5 -50t-48.5 -21zM364 544q-28 0 -49 21t-21 50t20.5 49t49.5 20t49.5 -20t20.5 -49t-20.5 -50t-49.5 -21zM474 150q0 -24 9.5 -34t31.5 -10v-106h-23q-86 0 -109 65q-62 -75 -174 -75q-80 0 -128.5 38
t-48.5 107q0 150 224 167l93 7v10q0 43 -22.5 68t-60.5 25q-41 0 -62.5 -24.5t-25.5 -55.5h-123q6 79 62 128.5t148 49.5q93 0 151 -53t58 -153v-154zM228 92q48 0 84.5 32t36.5 86v10l-63 -5q-123 -11 -123 -72q0 -24 18 -37.5t47 -13.5z" />
    <glyph glyph-name="aring" unicode="&#xe5;" 
d="M264 533q-41 0 -70.5 29t-29.5 70t29.5 70t70.5 29t71 -29.5t30 -69.5t-30 -69.5t-71 -29.5zM265 663q-12 0 -21 -9.5t-9 -21.5t8.5 -21t21.5 -9q12 0 21 9t9 21t-9 21.5t-21 9.5zM474 150q0 -24 9.5 -34t31.5 -10v-106h-23q-86 0 -109 65q-62 -75 -174 -75
q-80 0 -128.5 38t-48.5 107q0 150 224 167l93 7v10q0 43 -22.5 68t-60.5 25q-41 0 -62.5 -24.5t-25.5 -55.5h-123q6 79 62 128.5t148 49.5q93 0 151 -53t58 -153v-154zM228 92q48 0 84.5 32t36.5 86v10l-63 -5q-123 -11 -123 -72q0 -24 18 -37.5t47 -13.5z" />
    <glyph glyph-name="ae" unicode="&#xe6;" horiz-adv-x="872" 
d="M715 158h123q-17 -79 -82 -123.5t-153 -44.5q-135 0 -206 95q-28 -44 -76.5 -69.5t-111.5 -25.5q-80 0 -128.5 38t-48.5 107q0 81 58.5 124.5t175.5 43.5h83v16q0 43 -22.5 68t-60.5 25q-41 0 -62.5 -24.5t-25.5 -55.5h-123q6 79 62 128.5t148 49.5q105 0 162 -64
q69 64 167 64q52 0 96.5 -16.5t80 -50.5t53 -92.5t11.5 -135.5h-361v-10q20 -109 131 -109q37 0 67 16.5t43 45.5zM600 408q-47 0 -79 -26t-44 -73h238q-2 40 -33.5 69.5t-81.5 29.5zM228 92q48 0 84.5 32t36.5 86v2h-73q-113 0 -113 -69q0 -24 18 -37.5t47 -13.5z" />
    <glyph glyph-name="ccedilla" unicode="&#xe7;" horiz-adv-x="562" 
d="M530 176q-11 -76 -66.5 -126t-139.5 -58l-25 -35q37 7 67 -17t30 -64t-27.5 -63t-77.5 -23q-33 0 -59 14.5t-35.5 26.5t-13.5 22l50 30q20 -33 55 -33q38 0 38 31q0 13 -10.5 21t-29.5 8q-17 0 -31 -10l-41 43l34 50q-100 14 -158 84.5t-58 170.5q0 112 75 187t184 75
q94 0 161 -54t76 -144h-129q-7 35 -35 59.5t-75 24.5q-57 0 -91.5 -40.5t-34.5 -107.5t33.5 -106.5t94.5 -39.5q41 0 69 20.5t38 53.5h132z" />
    <glyph glyph-name="egrave" unicode="&#xe8;" horiz-adv-x="557" 
d="M327 555h-91l-111 140h136zM400 158h123q-17 -79 -82 -123.5t-153 -44.5q-116 0 -186 72t-70 189q0 114 71 186.5t176 72.5q52 0 96.5 -16.5t80 -50.5t53 -92.5t11.5 -135.5h-363q17 -119 133 -119q37 0 67 16.5t43 45.5zM285 408q-47 0 -79 -26t-44 -73h238
q-2 40 -33.5 69.5t-81.5 29.5z" />
    <glyph glyph-name="eacute" unicode="&#xe9;" horiz-adv-x="557" 
d="M436 695l-111 -140h-91l66 140h136zM400 158h123q-17 -79 -82 -123.5t-153 -44.5q-116 0 -186 72t-70 189q0 114 71 186.5t176 72.5q52 0 96.5 -16.5t80 -50.5t53 -92.5t11.5 -135.5h-363q17 -119 133 -119q37 0 67 16.5t43 45.5zM285 408q-47 0 -79 -26t-44 -73h238
q-2 40 -33.5 69.5t-81.5 29.5z" />
    <glyph glyph-name="ecircumflex" unicode="&#xea;" horiz-adv-x="557" 
d="M274 623l-53 -72h-113l121 149h102l121 -149h-112l-54 72h-12zM400 158h123q-17 -79 -82 -123.5t-153 -44.5q-116 0 -186 72t-70 189q0 114 71 186.5t176 72.5q52 0 96.5 -16.5t80 -50.5t53 -92.5t11.5 -135.5h-363q17 -119 133 -119q37 0 67 16.5t43 45.5zM285 408
q-47 0 -79 -26t-44 -73h238q-2 40 -33.5 69.5t-81.5 29.5z" />
    <glyph glyph-name="edieresis" unicode="&#xeb;" horiz-adv-x="557" 
d="M184 544q-29 0 -50 21t-21 50t21 49t50 20t49 -20t20 -49t-20.5 -50t-48.5 -21zM380 544q-28 0 -49 21t-21 50t20.5 49t49.5 20t49.5 -20t20.5 -49t-20.5 -50t-49.5 -21zM400 158h123q-17 -79 -82 -123.5t-153 -44.5q-116 0 -186 72t-70 189q0 114 71 186.5t176 72.5
q52 0 96.5 -16.5t80 -50.5t53 -92.5t11.5 -135.5h-363q17 -119 133 -119q37 0 67 16.5t43 45.5zM285 408q-47 0 -79 -26t-44 -73h238q-2 40 -33.5 69.5t-81.5 29.5z" />
    <glyph glyph-name="igrave" unicode="&#xec;" horiz-adv-x="248" 
d="M105 695l66 -140h-91l-111 140h136zM189 500v-500h-130v500h130z" />
    <glyph glyph-name="iacute" unicode="&#xed;" horiz-adv-x="248" 
d="M144 695h136l-111 -140h-91zM189 500v-500h-130v500h130z" />
    <glyph glyph-name="icircumflex" unicode="&#xee;" horiz-adv-x="248" 
d="M65 551h-113l121 149h102l121 -149h-112l-54 72h-12zM189 500v-500h-130v500h130z" />
    <glyph glyph-name="idieresis" unicode="&#xef;" horiz-adv-x="248" 
d="M28 544q-29 0 -50 21t-21 50t21 49t50 20t49 -20t20 -49t-20.5 -50t-48.5 -21zM224 544q-28 0 -49 21t-21 50t20.5 49t49.5 20t49.5 -20t20.5 -49t-20.5 -50t-49.5 -21zM189 500v-500h-130v500h130z" />
    <glyph glyph-name="eth" unicode="&#xf0;" horiz-adv-x="567" 
d="M416 624q110 -97 110 -308q0 -171 -70 -248.5t-186 -77.5q-111 0 -174.5 70.5t-63.5 189.5q0 115 69 187.5t169 72.5q37 0 65 -12.5t38.5 -23t22.5 -27.5q-19 87 -90 128l-131 -60l-20 51l77 35q-32 6 -71 6h-28v93h49q107 0 181 -40l110 50l20 -51zM277 107q56 0 90 40
t34 103t-34 103.5t-91 40.5q-55 0 -88.5 -41t-33.5 -103q0 -64 32.5 -103.5t90.5 -39.5z" />
    <glyph glyph-name="ntilde" unicode="&#xf1;" horiz-adv-x="589" 
d="M489 646q-12 -37 -41.5 -68t-76.5 -31q-39 0 -78 25t-59 25q-35 0 -56 -45l-68 36q12 37 41 67.5t76 30.5q39 0 78.5 -24.5t59.5 -24.5q36 0 56 45zM343 510q86 0 140.5 -59.5t54.5 -167.5v-283h-135v261q0 64 -29.5 97t-77.5 33q-44 0 -74.5 -32t-30.5 -95v-264h-136
v500h106l17 -61h11q16 20 30 32.5t47.5 25.5t76.5 13z" />
    <glyph glyph-name="ograve" unicode="&#xf2;" horiz-adv-x="592" 
d="M276 695l66 -140h-91l-111 140h136zM297 -10q-112 0 -188.5 73t-76.5 187t76 187t188 73t187.5 -72.5t75.5 -187.5q0 -114 -75 -187t-187 -73zM297 105q58 0 95 41.5t37 103.5t-37 103.5t-96 41.5t-96.5 -41.5t-37.5 -103.5t38 -103.5t97 -41.5z" />
    <glyph glyph-name="oacute" unicode="&#xf3;" horiz-adv-x="592" 
d="M315 695h136l-111 -140h-91zM297 -10q-112 0 -188.5 73t-76.5 187t76 187t188 73t187.5 -72.5t75.5 -187.5q0 -114 -75 -187t-187 -73zM297 105q58 0 95 41.5t37 103.5t-37 103.5t-96 41.5t-96.5 -41.5t-37.5 -103.5t38 -103.5t97 -41.5z" />
    <glyph glyph-name="ocircumflex" unicode="&#xf4;" horiz-adv-x="592" 
d="M236 551h-113l121 149h102l121 -149h-112l-54 72h-12zM297 -10q-112 0 -188.5 73t-76.5 187t76 187t188 73t187.5 -72.5t75.5 -187.5q0 -114 -75 -187t-187 -73zM297 105q58 0 95 41.5t37 103.5t-37 103.5t-96 41.5t-96.5 -41.5t-37.5 -103.5t38 -103.5t97 -41.5z" />
    <glyph glyph-name="otilde" unicode="&#xf5;" horiz-adv-x="592" 
d="M486 646q-12 -37 -41.5 -68t-76.5 -31q-39 0 -78 25t-59 25q-35 0 -56 -45l-68 36q12 37 41 67.5t76 30.5q39 0 78.5 -24.5t59.5 -24.5q36 0 56 45zM297 -10q-112 0 -188.5 73t-76.5 187t76 187t188 73t187.5 -72.5t75.5 -187.5q0 -114 -75 -187t-187 -73zM297 105
q58 0 95 41.5t37 103.5t-37 103.5t-96 41.5t-96.5 -41.5t-37.5 -103.5t38 -103.5t97 -41.5z" />
    <glyph glyph-name="odieresis" unicode="&#xf6;" horiz-adv-x="592" 
d="M199 544q-29 0 -50 21t-21 50t21 49t50 20t49 -20t20 -49t-20.5 -50t-48.5 -21zM395 544q-28 0 -49 21t-21 50t20.5 49t49.5 20t49.5 -20t20.5 -49t-20.5 -50t-49.5 -21zM297 -10q-112 0 -188.5 73t-76.5 187t76 187t188 73t187.5 -72.5t75.5 -187.5q0 -114 -75 -187
t-187 -73zM297 105q58 0 95 41.5t37 103.5t-37 103.5t-96 41.5t-96.5 -41.5t-37.5 -103.5t38 -103.5t97 -41.5z" />
    <glyph glyph-name="divide" unicode="&#xf7;" horiz-adv-x="553" 
d="M278 380q-32 0 -55.5 23t-23.5 54q0 32 23.5 55t55.5 23q31 0 53.5 -23t22.5 -55q0 -31 -22.5 -54t-53.5 -23zM41 334h470v-108h-470v108zM279 19q-32 0 -55.5 23t-23.5 54q0 32 23.5 55t55.5 23q31 0 53.5 -23t22.5 -55q0 -31 -22.5 -54t-53.5 -23z" />
    <glyph glyph-name="oslash" unicode="&#xf8;" horiz-adv-x="592" 
d="M481 439q78 -73 78 -189q0 -114 -75 -187t-187 -73q-60 0 -116 24l-27 -37l-72 50l26 37q-76 73 -76 186q0 114 76 187t188 73q59 0 112 -22l27 38l73 -49zM162 250q0 -46 21 -80l155 219q-20 6 -42 6q-59 0 -96.5 -41.5t-37.5 -103.5zM297 105q58 0 95 41.5t37 103.5
q0 46 -22 84l-157 -221q24 -8 47 -8z" />
    <glyph glyph-name="ugrave" unicode="&#xf9;" horiz-adv-x="589" 
d="M272 695l66 -140h-91l-111 140h136zM248 -10q-87 0 -140.5 59t-53.5 168v283h135v-261q0 -64 29 -97t77 -33q44 0 73.5 31.5t29.5 95.5v264h135v-500h-105l-17 61h-11q-16 -20 -29.5 -32.5t-46.5 -25.5t-76 -13z" />
    <glyph glyph-name="uacute" unicode="&#xfa;" horiz-adv-x="589" 
d="M311 695h136l-111 -140h-91zM248 -10q-87 0 -140.5 59t-53.5 168v283h135v-261q0 -64 29 -97t77 -33q44 0 73.5 31.5t29.5 95.5v264h135v-500h-105l-17 61h-11q-16 -20 -29.5 -32.5t-46.5 -25.5t-76 -13z" />
    <glyph glyph-name="ucircumflex" unicode="&#xfb;" horiz-adv-x="589" 
d="M232 551h-113l121 149h102l121 -149h-112l-54 72h-12zM248 -10q-87 0 -140.5 59t-53.5 168v283h135v-261q0 -64 29 -97t77 -33q44 0 73.5 31.5t29.5 95.5v264h135v-500h-105l-17 61h-11q-16 -20 -29.5 -32.5t-46.5 -25.5t-76 -13z" />
    <glyph glyph-name="udieresis" unicode="&#xfc;" horiz-adv-x="589" 
d="M195 544q-29 0 -50 21t-21 50t21 49t50 20t49 -20t20 -49t-20.5 -50t-48.5 -21zM391 544q-28 0 -49 21t-21 50t20.5 49t49.5 20t49.5 -20t20.5 -49t-20.5 -50t-49.5 -21zM248 -10q-87 0 -140.5 59t-53.5 168v283h135v-261q0 -64 29 -97t77 -33q44 0 73.5 31.5t29.5 95.5
v264h135v-500h-105l-17 61h-11q-16 -20 -29.5 -32.5t-46.5 -25.5t-76 -13z" />
    <glyph glyph-name="yacute" unicode="&#xfd;" horiz-adv-x="579" 
d="M310 695h136l-111 -140h-91zM427 500h134l-179 -540q-27 -82 -74 -126t-133 -44t-132 46l53 92q34 -29 72 -29q28 0 51.5 20.5t33.5 51.5l10 29h-50l-194 500h140l138 -368h11z" />
    <glyph glyph-name="thorn" unicode="&#xfe;" horiz-adv-x="585" 
d="M324 509q96 0 162.5 -71t66.5 -187q0 -118 -68 -190t-167 -72q-94 0 -136 62v-251h-127v910h123v-259h11q52 58 135 58zM302 106q54 0 88.5 40t34.5 103q0 64 -34.5 104t-88.5 40t-87 -40.5t-33 -103.5t33 -103t87 -40z" />
    <glyph glyph-name="ydieresis" unicode="&#xff;" horiz-adv-x="579" 
d="M194 544q-29 0 -50 21t-21 50t21 49t50 20t49 -20t20 -49t-20.5 -50t-48.5 -21zM390 544q-28 0 -49 21t-21 50t20.5 49t49.5 20t49.5 -20t20.5 -49t-20.5 -50t-49.5 -21zM427 500h134l-179 -540q-27 -82 -74 -126t-133 -44t-132 46l53 92q34 -29 72 -29q28 0 51.5 20.5
t33.5 51.5l10 29h-50l-194 500h140l138 -368h11z" />
    <glyph glyph-name="Amacron" unicode="&#x100;" horiz-adv-x="678" 
d="M511 852v-92h-345v92h345zM520 0l-49 154h-265l-49 -154h-144l237 700h178l236 -700h-144zM243 270h191l-90 283h-11z" />
    <glyph glyph-name="amacron" unicode="&#x101;" 
d="M430 656v-87h-329v87h329zM474 150q0 -24 9.5 -34t31.5 -10v-106h-23q-86 0 -109 65q-62 -75 -174 -75q-80 0 -128.5 38t-48.5 107q0 150 224 167l93 7v10q0 43 -22.5 68t-60.5 25q-41 0 -62.5 -24.5t-25.5 -55.5h-123q6 79 62 128.5t148 49.5q93 0 151 -53t58 -153v-154
zM228 92q48 0 84.5 32t36.5 86v10l-63 -5q-123 -11 -123 -72q0 -24 18 -37.5t47 -13.5z" />
    <glyph glyph-name="Abreve" unicode="&#x102;" horiz-adv-x="678" 
d="M340 758q-63 0 -106.5 37.5t-43.5 91.5h96q0 -22 15 -37.5t40 -15.5q24 0 37.5 15.5t13.5 37.5h97q0 -54 -43 -91.5t-106 -37.5zM520 0l-49 154h-265l-49 -154h-144l237 700h178l236 -700h-144zM243 270h191l-90 283h-11z" />
    <glyph glyph-name="abreve" unicode="&#x103;" 
d="M266 567q-60 0 -101.5 35.5t-41.5 87.5h92q0 -21 14 -36t38 -15t36.5 14.5t12.5 36.5h92q0 -52 -41 -87.5t-101 -35.5zM474 150q0 -24 9.5 -34t31.5 -10v-106h-23q-86 0 -109 65q-62 -75 -174 -75q-80 0 -128.5 38t-48.5 107q0 150 224 167l93 7v10q0 43 -22.5 68
t-60.5 25q-41 0 -62.5 -24.5t-25.5 -55.5h-123q6 79 62 128.5t148 49.5q93 0 151 -53t58 -153v-154zM228 92q48 0 84.5 32t36.5 86v10l-63 -5q-123 -11 -123 -72q0 -24 18 -37.5t47 -13.5z" />
    <glyph glyph-name="Aogonek" unicode="&#x104;" horiz-adv-x="678" 
d="M598 -64q0 -38 40 -47t67 11v-70q-18 -16 -65 -16q-50 0 -84.5 27.5t-34.5 76.5q0 51 51 82h-52l-49 154h-265l-49 -154h-144l237 700h178l236 -700q-29 -7 -47.5 -25t-18.5 -39zM243 270h191l-90 283h-11z" />
    <glyph glyph-name="aogonek" unicode="&#x105;" 
d="M450 -63q0 -38 39.5 -46.5t66.5 11.5v-69q-18 -16 -64 -16q-49 0 -83 27t-34 75q0 56 64 89q-42 15 -56 57q-62 -75 -174 -75q-80 0 -128.5 38t-48.5 107q0 150 224 167l93 7v10q0 43 -22.5 68t-60.5 25q-41 0 -62.5 -24.5t-25.5 -55.5h-123q6 79 62 128.5t148 49.5
q93 0 151 -53t58 -153v-154q0 -24 9.5 -34t31.5 -10v-106q-29 -7 -47 -24.5t-18 -38.5zM228 92q48 0 84.5 32t36.5 86v10l-63 -5q-123 -11 -123 -72q0 -24 18 -37.5t47 -13.5z" />
    <glyph glyph-name="Cacute" unicode="&#x106;" horiz-adv-x="719" 
d="M391 901h143l-117 -147h-95zM683 225q-20 -110 -102 -172.5t-198 -62.5q-157 0 -249.5 100t-92.5 260q0 158 91.5 259t238.5 101q115 0 197.5 -59t101.5 -177h-143q-14 50 -53.5 79t-100.5 29q-85 0 -135.5 -66t-50.5 -168q0 -105 52.5 -168t142.5 -63q58 0 100.5 29.5
t58.5 78.5h142z" />
    <glyph glyph-name="cacute" unicode="&#x107;" horiz-adv-x="562" 
d="M307 695h136l-111 -140h-91zM530 176q-11 -83 -76.5 -134.5t-161.5 -51.5q-119 0 -189.5 73t-70.5 185t75 187t184 75q94 0 161 -54t76 -144h-129q-7 35 -35 59.5t-75 24.5q-57 0 -91.5 -40.5t-34.5 -107.5t33.5 -106.5t94.5 -39.5q41 0 69 20.5t38 53.5h132z" />
    <glyph glyph-name="Ccircumflex" unicode="&#x108;" horiz-adv-x="719" 
d="M315 767h-115l123 151h104l123 -151h-114l-55 73h-12zM683 225q-20 -110 -102 -172.5t-198 -62.5q-157 0 -249.5 100t-92.5 260q0 158 91.5 259t238.5 101q115 0 197.5 -59t101.5 -177h-143q-14 50 -53.5 79t-100.5 29q-85 0 -135.5 -66t-50.5 -168q0 -105 52.5 -168
t142.5 -63q58 0 100.5 29.5t58.5 78.5h142z" />
    <glyph glyph-name="ccircumflex" unicode="&#x109;" horiz-adv-x="562" 
d="M228 551h-113l121 149h102l121 -149h-112l-54 72h-12zM530 176q-11 -83 -76.5 -134.5t-161.5 -51.5q-119 0 -189.5 73t-70.5 185t75 187t184 75q94 0 161 -54t76 -144h-129q-7 35 -35 59.5t-75 24.5q-57 0 -91.5 -40.5t-34.5 -107.5t33.5 -106.5t94.5 -39.5q41 0 69 20.5
t38 53.5h132z" />
    <glyph glyph-name="Cdotaccent" unicode="&#x10a;" horiz-adv-x="719" 
d="M375 764q-37 0 -64 26.5t-27 62.5q0 39 26.5 64.5t64.5 25.5q37 0 63 -25.5t26 -64.5q0 -36 -26.5 -62.5t-62.5 -26.5zM683 225q-20 -110 -102 -172.5t-198 -62.5q-157 0 -249.5 100t-92.5 260q0 158 91.5 259t238.5 101q115 0 197.5 -59t101.5 -177h-143
q-14 50 -53.5 79t-100.5 29q-85 0 -135.5 -66t-50.5 -168q0 -105 52.5 -168t142.5 -63q58 0 100.5 29.5t58.5 78.5h142z" />
    <glyph glyph-name="cdotaccent" unicode="&#x10b;" horiz-adv-x="562" 
d="M288 560q-34 0 -58.5 24.5t-24.5 56.5q0 35 24.5 58.5t58.5 23.5t57.5 -23.5t23.5 -58.5q0 -33 -24 -57t-57 -24zM530 176q-11 -83 -76.5 -134.5t-161.5 -51.5q-119 0 -189.5 73t-70.5 185t75 187t184 75q94 0 161 -54t76 -144h-129q-7 35 -35 59.5t-75 24.5
q-57 0 -91.5 -40.5t-34.5 -107.5t33.5 -106.5t94.5 -39.5q41 0 69 20.5t38 53.5h132z" />
    <glyph glyph-name="Ccaron" unicode="&#x10c;" horiz-adv-x="719" 
d="M436 908h115l-123 -151h-104l-123 151h114l55 -73h12zM683 225q-20 -110 -102 -172.5t-198 -62.5q-157 0 -249.5 100t-92.5 260q0 158 91.5 259t238.5 101q115 0 197.5 -59t101.5 -177h-143q-14 50 -53.5 79t-100.5 29q-85 0 -135.5 -66t-50.5 -168q0 -105 52.5 -168
t142.5 -63q58 0 100.5 29.5t58.5 78.5h142z" />
    <glyph glyph-name="ccaron" unicode="&#x10d;" horiz-adv-x="562" 
d="M347 700h113l-121 -149h-102l-121 149h112l54 -72h12zM530 176q-11 -83 -76.5 -134.5t-161.5 -51.5q-119 0 -189.5 73t-70.5 185t75 187t184 75q94 0 161 -54t76 -144h-129q-7 35 -35 59.5t-75 24.5q-57 0 -91.5 -40.5t-34.5 -107.5t33.5 -106.5t94.5 -39.5q41 0 69 20.5
t38 53.5h132z" />
    <glyph glyph-name="Dcaron" unicode="&#x10e;" horiz-adv-x="683" 
d="M386 908h115l-123 -151h-104l-123 151h114l55 -73h12zM290 700q163 0 257.5 -92t94.5 -256q0 -167 -94.5 -259.5t-257.5 -92.5h-230v700h230zM291 127q97 0 155.5 61.5t58.5 167.5q0 101 -58 159t-156 58h-93v-446h93z" />
    <glyph glyph-name="dcaron" unicode="&#x10f;" horiz-adv-x="586" 
d="M404 712h127v-712h-99l-15 58h-13q-52 -67 -142 -67q-96 0 -162.5 71t-66.5 187q0 118 68 190t167 72q94 0 136 -62v263zM602 700h107l-36 -180h-85zM284 107q54 0 87 40.5t33 103.5t-33 103t-87 40t-88.5 -40t-34.5 -103q0 -64 34.5 -104t88.5 -40z" />
    <glyph glyph-name="Dcroat" unicode="&#x110;" horiz-adv-x="683" 
d="M290 700q163 0 257.5 -92t94.5 -256q0 -167 -94.5 -259.5t-257.5 -92.5h-230v302h-99v99h99v299h230zM291 127q97 0 155.5 61.5t58.5 167.5q0 101 -58 159t-156 58h-93v-172h165v-99h-165v-175h93z" />
    <glyph glyph-name="dcroat" unicode="&#x111;" horiz-adv-x="586" 
d="M612 649v-91h-81v-558h-99l-15 58h-13q-52 -67 -142 -67q-96 0 -162.5 71t-66.5 187q0 118 68 190t167 72q94 0 136 -62v109h-136v91h136v63h127v-63h81zM284 107q54 0 87 40.5t33 103.5t-33 103t-87 40t-88.5 -40t-34.5 -103q0 -64 34.5 -104t88.5 -40z" />
    <glyph glyph-name="Emacron" unicode="&#x112;" horiz-adv-x="556" 
d="M119 852h345v-92h-345v92zM191 123h342v-123h-473v700h463v-123h-332v-164h286v-117h-286v-173z" />
    <glyph glyph-name="emacron" unicode="&#x113;" horiz-adv-x="557" 
d="M446 656v-87h-329v87h329zM400 158h123q-17 -79 -82 -123.5t-153 -44.5q-116 0 -186 72t-70 189q0 114 71 186.5t176 72.5q52 0 96.5 -16.5t80 -50.5t53 -92.5t11.5 -135.5h-363q17 -119 133 -119q37 0 67 16.5t43 45.5zM285 408q-47 0 -79 -26t-44 -73h238
q-2 40 -33.5 69.5t-81.5 29.5z" />
    <glyph glyph-name="Ebreve" unicode="&#x114;" horiz-adv-x="556" 
d="M442 887q0 -54 -43 -91.5t-106 -37.5t-106.5 37.5t-43.5 91.5h96q0 -22 15 -37.5t40 -15.5q24 0 37.5 15.5t13.5 37.5h97zM191 123h342v-123h-473v700h463v-123h-332v-164h286v-117h-286v-173z" />
    <glyph glyph-name="ebreve" unicode="&#x115;" horiz-adv-x="557" 
d="M282 567q-60 0 -101.5 35.5t-41.5 87.5h92q0 -21 14 -36t38 -15t36.5 14.5t12.5 36.5h92q0 -52 -41 -87.5t-101 -35.5zM400 158h123q-17 -79 -82 -123.5t-153 -44.5q-116 0 -186 72t-70 189q0 114 71 186.5t176 72.5q52 0 96.5 -16.5t80 -50.5t53 -92.5t11.5 -135.5h-363
q17 -119 133 -119q37 0 67 16.5t43 45.5zM285 408q-47 0 -79 -26t-44 -73h238q-2 40 -33.5 69.5t-81.5 29.5z" />
    <glyph glyph-name="Edotaccent" unicode="&#x116;" horiz-adv-x="556" 
d="M291 764q-37 0 -64 26.5t-27 62.5q0 39 26.5 64.5t64.5 25.5q37 0 63 -25.5t26 -64.5q0 -36 -26.5 -62.5t-62.5 -26.5zM191 123h342v-123h-473v700h463v-123h-332v-164h286v-117h-286v-173z" />
    <glyph glyph-name="edotaccent" unicode="&#x117;" horiz-adv-x="557" 
d="M281 560q-34 0 -58.5 24.5t-24.5 56.5q0 35 24.5 58.5t58.5 23.5t57.5 -23.5t23.5 -58.5q0 -33 -24 -57t-57 -24zM400 158h123q-17 -79 -82 -123.5t-153 -44.5q-116 0 -186 72t-70 189q0 114 71 186.5t176 72.5q52 0 96.5 -16.5t80 -50.5t53 -92.5t11.5 -135.5h-363
q17 -119 133 -119q37 0 67 16.5t43 45.5zM285 408q-47 0 -79 -26t-44 -73h238q-2 40 -33.5 69.5t-81.5 29.5z" />
    <glyph glyph-name="Eogonek" unicode="&#x118;" horiz-adv-x="556" 
d="M467 -64q0 -38 40 -47t67 11v-70q-18 -16 -65 -16q-50 0 -84.5 27.5t-34.5 76.5q0 51 51 82h-381v700h463v-123h-332v-164h286v-117h-286v-173h342v-123q-29 -7 -47.5 -25t-18.5 -39z" />
    <glyph glyph-name="eogonek" unicode="&#x119;" horiz-adv-x="557" 
d="M279 510q52 0 96.5 -16.5t80 -50.5t53 -92.5t11.5 -135.5h-360q15 -119 130 -119q37 0 67 16.5t43 45.5h123q-12 -59 -53 -99.5t-99 -57.5q-26 -7 -41.5 -25t-15.5 -38q0 -38 39.5 -47t66.5 11v-69q-18 -16 -64 -16q-49 0 -83 26t-34 70q0 48 41 78h-10q-106 0 -172 73.5
t-66 186.5q0 114 71 186.5t176 72.5zM165 309h235q-2 40 -33.5 69.5t-81.5 29.5q-46 0 -77.5 -26.5t-42.5 -72.5z" />
    <glyph glyph-name="Ecaron" unicode="&#x11a;" horiz-adv-x="556" 
d="M352 908h115l-123 -151h-104l-123 151h114l55 -73h12zM191 123h342v-123h-473v700h463v-123h-332v-164h286v-117h-286v-173z" />
    <glyph glyph-name="ecaron" unicode="&#x11b;" horiz-adv-x="557" 
d="M332 551h-102l-121 149h112l54 -72h12l53 72h113zM400 158h123q-17 -79 -82 -123.5t-153 -44.5q-116 0 -186 72t-70 189q0 114 71 186.5t176 72.5q52 0 96.5 -16.5t80 -50.5t53 -92.5t11.5 -135.5h-363q17 -119 133 -119q37 0 67 16.5t43 45.5zM285 408q-47 0 -79 -26
t-44 -73h238q-2 40 -33.5 69.5t-81.5 29.5z" />
    <glyph glyph-name="Gcircumflex" unicode="&#x11c;" horiz-adv-x="736" 
d="M305 767h-115l123 151h104l123 -151h-114l-55 73h-12zM358 379h316v-379h-92l-19 70h-11q-27 -30 -77 -55t-123 -25q-144 0 -227.5 96.5t-83.5 249.5q0 164 91.5 269t235.5 105q136 0 212.5 -64.5t87.5 -165.5h-140q-9 44 -50 74t-101 30q-91 0 -144 -68.5t-53 -174.5
q0 -103 51.5 -165.5t152.5 -62.5q92 0 157 65v94h-183v107z" />
    <glyph glyph-name="gcircumflex" unicode="&#x11d;" horiz-adv-x="544" 
d="M258 623l-53 -72h-113l121 149h102l121 -149h-112l-54 72h-12zM525 469q-21 -26 -78 -48q25 -41 25 -89q0 -74 -59 -118t-151 -44q-37 0 -66 7q-34 -12 -34 -31q0 -36 74 -36h79q92 0 138.5 -40.5t46.5 -109.5q0 -77 -62.5 -123.5t-170.5 -46.5q-111 0 -173 51.5
t-62 125.5l70 59q-55 26 -55 85q0 65 74 99q-66 47 -66 127q0 75 55 124.5t147 49.5q73 0 129 -32q40 23 79 68zM264 262q38 0 61 22.5t23 55.5q0 34 -23 57t-60 23q-39 0 -62 -22.5t-23 -57.5q0 -33 23 -55.5t61 -22.5zM373 -47q0 58 -82 58h-73l-60 -48q16 -72 115 -72
q46 0 73 16.5t27 45.5z" />
    <glyph glyph-name="Gbreve" unicode="&#x11e;" horiz-adv-x="736" 
d="M516 887q0 -54 -43 -91.5t-106 -37.5t-106.5 37.5t-43.5 91.5h96q0 -22 15 -37.5t40 -15.5q24 0 37.5 15.5t13.5 37.5h97zM358 379h316v-379h-92l-19 70h-11q-27 -30 -77 -55t-123 -25q-144 0 -227.5 96.5t-83.5 249.5q0 164 91.5 269t235.5 105q136 0 212.5 -64.5
t87.5 -165.5h-140q-9 44 -50 74t-101 30q-91 0 -144 -68.5t-53 -174.5q0 -103 51.5 -165.5t152.5 -62.5q92 0 157 65v94h-183v107z" />
    <glyph glyph-name="gbreve" unicode="&#x11f;" horiz-adv-x="544" 
d="M266 567q-60 0 -101.5 35.5t-41.5 87.5h92q0 -21 14 -36t38 -15t36.5 14.5t12.5 36.5h92q0 -52 -41 -87.5t-101 -35.5zM525 469q-21 -26 -78 -48q25 -41 25 -89q0 -74 -59 -118t-151 -44q-37 0 -66 7q-34 -12 -34 -31q0 -36 74 -36h79q92 0 138.5 -40.5t46.5 -109.5
q0 -77 -62.5 -123.5t-170.5 -46.5q-111 0 -173 51.5t-62 125.5l70 59q-55 26 -55 85q0 65 74 99q-66 47 -66 127q0 75 55 124.5t147 49.5q73 0 129 -32q40 23 79 68zM264 262q38 0 61 22.5t23 55.5q0 34 -23 57t-60 23q-39 0 -62 -22.5t-23 -57.5q0 -33 23 -55.5t61 -22.5z
M373 -47q0 58 -82 58h-73l-60 -48q16 -72 115 -72q46 0 73 16.5t27 45.5z" />
    <glyph glyph-name="Gdotaccent" unicode="&#x120;" horiz-adv-x="736" 
d="M365 764q-37 0 -64 26.5t-27 62.5q0 39 26.5 64.5t64.5 25.5q37 0 63 -25.5t26 -64.5q0 -36 -26.5 -62.5t-62.5 -26.5zM358 379h316v-379h-92l-19 70h-11q-27 -30 -77 -55t-123 -25q-144 0 -227.5 96.5t-83.5 249.5q0 164 91.5 269t235.5 105q136 0 212.5 -64.5
t87.5 -165.5h-140q-9 44 -50 74t-101 30q-91 0 -144 -68.5t-53 -174.5q0 -103 51.5 -165.5t152.5 -62.5q92 0 157 65v94h-183v107z" />
    <glyph glyph-name="gdotaccent" unicode="&#x121;" horiz-adv-x="544" 
d="M265 560q-34 0 -58.5 24.5t-24.5 56.5q0 35 24.5 58.5t58.5 23.5t57.5 -23.5t23.5 -58.5q0 -33 -24 -57t-57 -24zM525 469q-21 -26 -78 -48q25 -41 25 -89q0 -74 -59 -118t-151 -44q-37 0 -66 7q-34 -12 -34 -31q0 -36 74 -36h79q92 0 138.5 -40.5t46.5 -109.5
q0 -77 -62.5 -123.5t-170.5 -46.5q-111 0 -173 51.5t-62 125.5l70 59q-55 26 -55 85q0 65 74 99q-66 47 -66 127q0 75 55 124.5t147 49.5q73 0 129 -32q40 23 79 68zM264 262q38 0 61 22.5t23 55.5q0 34 -23 57t-60 23q-39 0 -62 -22.5t-23 -57.5q0 -33 23 -55.5t61 -22.5z
M373 -47q0 58 -82 58h-73l-60 -48q16 -72 115 -72q46 0 73 16.5t27 45.5z" />
    <glyph glyph-name="Gcommaaccent" unicode="&#x122;" horiz-adv-x="736" 
d="M358 379h316v-379h-92l-19 70h-11q-27 -30 -77 -55t-123 -25q-144 0 -227.5 96.5t-83.5 249.5q0 164 91.5 269t235.5 105q136 0 212.5 -64.5t87.5 -165.5h-140q-9 44 -50 74t-101 30q-91 0 -144 -68.5t-53 -174.5q0 -103 51.5 -165.5t152.5 -62.5q92 0 157 65v94h-183
v107zM363 -49q38 0 61 -30t23 -77q0 -68 -37 -118t-87 -74l-29 34q66 54 69 107q-30 -5 -54 17t-24 61q0 36 22.5 58t55.5 22z" />
    <glyph glyph-name="gcommaaccent" unicode="&#x123;" horiz-adv-x="544" 
d="M267 549q-38 0 -60 29.5t-22 75.5q0 68 36.5 116.5t85.5 72.5l28 -33q-65 -55 -68 -106q30 5 53.5 -16t23.5 -60q0 -36 -22 -57.5t-55 -21.5zM525 469q-21 -26 -78 -48q25 -41 25 -89q0 -74 -59 -118t-151 -44q-37 0 -66 7q-34 -12 -34 -31q0 -36 74 -36h79
q92 0 138.5 -40.5t46.5 -109.5q0 -77 -62.5 -123.5t-170.5 -46.5q-111 0 -173 51.5t-62 125.5l70 59q-55 26 -55 85q0 65 74 99q-66 47 -66 127q0 75 55 124.5t147 49.5q73 0 129 -32q40 23 79 68zM264 262q38 0 61 22.5t23 55.5q0 34 -23 57t-60 23q-39 0 -62 -22.5
t-23 -57.5q0 -33 23 -55.5t61 -22.5zM373 -47q0 58 -82 58h-73l-60 -48q16 -72 115 -72q46 0 73 16.5t27 45.5z" />
    <glyph glyph-name="Hcircumflex" unicode="&#x124;" horiz-adv-x="675" 
d="M273 767h-115l123 151h104l123 -151h-114l-55 73h-12zM478 700h136v-700h-136v294h-282v-294h-136v700h136v-284h282v284z" />
    <glyph glyph-name="hcircumflex" unicode="&#x125;" horiz-adv-x="599" 
d="M241 767h-115l123 151h104l123 -151h-114l-55 73h-12zM356 510q87 0 139.5 -55t52.5 -154v-301h-134v255q0 63 -30 97.5t-83 34.5q-46 0 -77 -32.5t-31 -95.5v-259h-138v710h138v-266h11q61 66 152 66z" />
    <glyph glyph-name="Hbar" unicode="&#x126;" horiz-adv-x="675" 
d="M478 700h136v-700h-136v294h-282v-294h-136v700h136v-90h282v90zM196 416h282v88h-282v-88z" />
    <glyph glyph-name="hbar" unicode="&#x127;" horiz-adv-x="599" 
d="M356 510q87 0 139.5 -55t52.5 -154v-301h-134v255q0 63 -30 97.5t-83 34.5q-46 0 -77 -32.5t-31 -95.5v-259h-138v558h-83v91h83v61h138v-61h123v-91h-123v-114h11q61 66 152 66z" />
    <glyph glyph-name="Itilde" unicode="&#x128;" horiz-adv-x="262" 
d="M330 857q-12 -39 -43 -71.5t-81 -32.5q-41 0 -82 26.5t-62 26.5q-37 0 -58 -47l-72 37q13 39 43.5 71t79.5 32q41 0 83 -25.5t62 -25.5q37 0 59 47zM201 700v-700h-141v700h141z" />
    <glyph glyph-name="itilde" unicode="&#x129;" horiz-adv-x="248" 
d="M315 646q-12 -37 -41.5 -68t-76.5 -31q-39 0 -78 25t-59 25q-35 0 -56 -45l-68 36q12 37 41 67.5t76 30.5q39 0 78.5 -24.5t59.5 -24.5q36 0 56 45zM189 500v-500h-130v500h130z" />
    <glyph glyph-name="Imacron" unicode="&#x12a;" horiz-adv-x="262" 
d="M-42 852h345v-92h-345v92zM201 700v-700h-141v700h141z" />
    <glyph glyph-name="imacron" unicode="&#x12b;" horiz-adv-x="248" 
d="M-39 656h329v-87h-329v87zM189 500v-500h-130v500h130z" />
    <glyph glyph-name="Ibreve" unicode="&#x12c;" horiz-adv-x="262" 
d="M281 887q0 -54 -43 -91.5t-106 -37.5t-106.5 37.5t-43.5 91.5h96q0 -22 15 -37.5t40 -15.5q24 0 37.5 15.5t13.5 37.5h97zM201 700v-700h-141v700h141z" />
    <glyph glyph-name="ibreve" unicode="&#x12d;" horiz-adv-x="248" 
d="M268 690q0 -52 -41 -87.5t-101 -35.5t-101.5 35.5t-41.5 87.5h92q0 -21 14 -36t38 -15t36.5 14.5t12.5 36.5h92zM189 500v-500h-130v500h130z" />
    <glyph glyph-name="Iogonek" unicode="&#x12e;" horiz-adv-x="262" 
d="M135 -64q0 -38 40 -47t67 11v-70q-18 -16 -65 -16q-50 0 -84.5 27.5t-34.5 76.5q0 51 51 82h-49v700h141v-700q-29 -7 -47.5 -25t-18.5 -39z" />
    <glyph glyph-name="iogonek" unicode="&#x12f;" horiz-adv-x="248" 
d="M125 560q-34 0 -58.5 24.5t-24.5 56.5q0 35 24.5 58.5t58.5 23.5t57.5 -23.5t23.5 -58.5q0 -33 -24 -57t-57 -24zM124 -63q0 -38 39.5 -46.5t66.5 11.5v-69q-18 -16 -64 -16q-49 0 -83 27t-34 75q0 50 50 81h-40v500h130v-500q-29 -7 -47 -24.5t-18 -38.5z" />
    <glyph glyph-name="Idotaccent" unicode="&#x130;" horiz-adv-x="262" 
d="M130 764q-37 0 -64 26.5t-27 62.5q0 39 26.5 64.5t64.5 25.5q37 0 63 -25.5t26 -64.5q0 -36 -26.5 -62.5t-62.5 -26.5zM201 700v-700h-141v700h141z" />
    <glyph glyph-name="dotlessi" unicode="&#x131;" horiz-adv-x="248" 
d="M189 500v-500h-130v500h130z" />
    <glyph glyph-name="IJ" unicode="&#x132;" horiz-adv-x="790" 
d="M201 700v-700h-141v700h141zM419 212q3 -43 25.5 -69.5t63.5 -26.5q40 0 64 27.5t24 81.5v475h134v-483q0 -107 -60.5 -167t-157.5 -60q-106 0 -164.5 60.5t-60.5 161.5h132z" />
    <glyph glyph-name="ij" unicode="&#x133;" horiz-adv-x="499" 
d="M125 560q-34 0 -58.5 24.5t-24.5 56.5q0 35 24.5 58.5t58.5 23.5t57.5 -23.5t23.5 -58.5q0 -33 -24 -57t-57 -24zM376 560q-34 0 -58.5 24.5t-24.5 56.5q0 35 24.5 58.5t58.5 23.5t57.5 -23.5t23.5 -58.5q0 -33 -24 -57t-57 -24zM189 500v-500h-130v500h130zM194 -73
q26 -23 59 -23q27 0 42.5 17t15.5 50v529h128v-541q0 -78 -46 -123.5t-116 -45.5q-77 0 -120 36z" />
    <glyph glyph-name="Jcircumflex" unicode="&#x134;" horiz-adv-x="525" 
d="M337 767h-115l123 151h104l123 -151h-114l-55 73h-12zM154 212q3 -43 25.5 -69.5t63.5 -26.5q40 0 64 27.5t24 81.5v475h134v-483q0 -107 -60.5 -167t-157.5 -60q-106 0 -164.5 60.5t-60.5 161.5h132z" />
    <glyph glyph-name="jcircumflex" unicode="&#x135;" horiz-adv-x="278" 
d="M94 551h-113l121 149h102l121 -149h-112l-54 72h-12zM-27 -73q26 -23 59 -23q27 0 42.5 17t15.5 50v529h128v-541q0 -78 -46 -123.5t-116 -45.5q-77 0 -120 36z" />
    <glyph glyph-name="Kcommaaccent" unicode="&#x136;" horiz-adv-x="627" 
d="M460 0l-222 294h-41v-294h-137v700h137v-274h41l193 274h154l-234 -335v-10l262 -355h-153zM312 -49q38 0 61 -30t23 -77q0 -68 -37 -118t-87 -74l-29 34q66 54 69 107q-30 -5 -54 17t-24 61q0 36 22.5 58t55.5 22z" />
    <glyph glyph-name="kcommaaccent" unicode="&#x137;" horiz-adv-x="536" 
d="M517 500l-201 -208l201 -292h-145l-141 203l-47 -49v-154h-129v710h129v-383h10l164 173h159zM271 -49q38 0 60 -29.5t22 -75.5q0 -68 -36.5 -116.5t-85.5 -72.5l-28 33q65 55 68 106q-30 -5 -53.5 16t-23.5 60q0 36 22 57.5t55 21.5z" />
    <glyph glyph-name="Lacute" unicode="&#x139;" horiz-adv-x="567" 
d="M148 901h143l-117 -147h-95zM204 131h340v-131h-483v700h143v-569z" />
    <glyph glyph-name="lacute" unicode="&#x13a;" horiz-adv-x="242" 
d="M276 895l-111 -140h-91l66 140h136zM55 0v710h132v-710h-132z" />
    <glyph glyph-name="Lcommaaccent" unicode="&#x13b;" horiz-adv-x="567" 
d="M204 131h340v-131h-483v700h143v-569zM300 -49q38 0 61 -30t23 -77q0 -68 -37 -118t-87 -74l-29 34q66 54 69 107q-30 -5 -54 17t-24 61q0 36 22.5 58t55.5 22z" />
    <glyph glyph-name="lcommaaccent" unicode="&#x13c;" horiz-adv-x="242" 
d="M187 710v-710h-132v710h132zM119 -49q38 0 60 -29.5t22 -75.5q0 -68 -36.5 -116.5t-85.5 -72.5l-28 33q65 55 68 106q-30 -5 -53.5 16t-23.5 60q0 36 22 57.5t55 21.5z" />
    <glyph glyph-name="Lcaron" unicode="&#x13d;" horiz-adv-x="567" 
d="M204 131h340v-131h-483v700h143v-569zM300 700h131l-44 -212h-104z" />
    <glyph glyph-name="lcaron" unicode="&#x13e;" horiz-adv-x="242" 
d="M55 0v710h132v-710h-132zM266 700h107l-36 -180h-85z" />
    <glyph glyph-name="Ldot" unicode="&#x13f;" horiz-adv-x="567" 
d="M204 131h340v-131h-483v700h143v-569zM383 339q-37 0 -64 26.5t-27 62.5q0 39 26.5 64.5t64.5 25.5q37 0 63 -25.5t26 -64.5q0 -36 -26.5 -62.5t-62.5 -26.5z" />
    <glyph glyph-name="ldot" unicode="&#x140;" horiz-adv-x="242" 
d="M121 760q-34 0 -58.5 24.5t-24.5 56.5q0 35 24.5 58.5t58.5 23.5t57.5 -23.5t23.5 -58.5q0 -33 -24 -57t-57 -24zM55 0v710h132v-710h-132z" />
    <glyph glyph-name="Lslash" unicode="&#x141;" horiz-adv-x="567" 
d="M204 131h340v-131h-483v242l-85 -43v117l85 43v341h143v-268l165 84v-117l-165 -84v-184z" />
    <glyph glyph-name="lslash" unicode="&#x142;" horiz-adv-x="242" 
d="M262 511v-110l-75 -45v-356h-132v277l-74 -44v110l74 44v323h132v-244z" />
    <glyph glyph-name="Nacute" unicode="&#x143;" horiz-adv-x="697" 
d="M364 901h143l-117 -147h-95zM507 700h130v-700h-130l-305 455h-11v-455h-131v700h139l297 -452h11v452z" />
    <glyph glyph-name="nacute" unicode="&#x144;" horiz-adv-x="589" 
d="M318 695h136l-111 -140h-91zM343 510q86 0 140.5 -59.5t54.5 -167.5v-283h-135v261q0 64 -29.5 97t-77.5 33q-44 0 -74.5 -32t-30.5 -95v-264h-136v500h106l17 -61h11q16 20 30 32.5t47.5 25.5t76.5 13z" />
    <glyph glyph-name="Ncommaaccent" unicode="&#x145;" horiz-adv-x="697" 
d="M507 700h130v-700h-130l-305 455h-11v-455h-131v700h139l297 -452h11v452zM346 -49q38 0 61 -30t23 -77q0 -68 -37 -118t-87 -74l-29 34q66 54 69 107q-30 -5 -54 17t-24 61q0 36 22.5 58t55.5 22z" />
    <glyph glyph-name="ncommaaccent" unicode="&#x146;" horiz-adv-x="589" 
d="M343 510q86 0 140.5 -59.5t54.5 -167.5v-283h-135v261q0 64 -29.5 97t-77.5 33q-44 0 -74.5 -32t-30.5 -95v-264h-136v500h106l17 -61h11q16 20 30 32.5t47.5 25.5t76.5 13zM294 -49q38 0 60 -29.5t22 -75.5q0 -68 -36.5 -116.5t-85.5 -72.5l-28 33q65 55 68 106
q-30 -5 -53.5 16t-23.5 60q0 36 22 57.5t55 21.5z" />
    <glyph glyph-name="Ncaron" unicode="&#x147;" horiz-adv-x="697" 
d="M409 908h115l-123 -151h-104l-123 151h114l55 -73h12zM507 700h130v-700h-130l-305 455h-11v-455h-131v700h139l297 -452h11v452z" />
    <glyph glyph-name="ncaron" unicode="&#x148;" horiz-adv-x="589" 
d="M358 700h113l-121 -149h-102l-121 149h112l54 -72h12zM343 510q86 0 140.5 -59.5t54.5 -167.5v-283h-135v261q0 64 -29.5 97t-77.5 33q-44 0 -74.5 -32t-30.5 -95v-264h-136v500h106l17 -61h11q16 20 30 32.5t47.5 25.5t76.5 13z" />
    <glyph glyph-name="Eng" unicode="&#x14a;" horiz-adv-x="697" 
d="M507 700h130v-737q0 -81 -44.5 -127t-116.5 -46q-67 0 -111 22v100q35 -16 64 -16q35 0 54.5 21t19.5 57v31l-301 450h-11v-455h-131v700h139l297 -452h11v452z" />
    <glyph glyph-name="eng" unicode="&#x14b;" horiz-adv-x="589" 
d="M343 510q86 0 140.5 -59.5t54.5 -167.5v-325q0 -79 -43.5 -123.5t-114.5 -44.5q-64 0 -108 22v98q30 -15 62 -15q34 0 51.5 18.5t17.5 49.5v298q0 64 -29.5 97t-77.5 33q-44 0 -74.5 -32t-30.5 -95v-264h-136v500h106l17 -61h11q16 20 30 32.5t47.5 25.5t76.5 13z" />
    <glyph glyph-name="Omacron" unicode="&#x14c;" horiz-adv-x="790" 
d="M222 852h345v-92h-345v92zM396 -10q-153 0 -254 103t-101 257t100.5 257t253.5 103q152 0 253 -103t101 -257t-101 -257t-252 -103zM396 121q91 0 151 65.5t60 163.5t-60.5 163.5t-151.5 65.5t-152 -65.5t-61 -163.5t61 -163.5t153 -65.5z" />
    <glyph glyph-name="omacron" unicode="&#x14d;" horiz-adv-x="592" 
d="M132 656h329v-87h-329v87zM297 -10q-112 0 -188.5 73t-76.5 187t76 187t188 73t187.5 -72.5t75.5 -187.5q0 -114 -75 -187t-187 -73zM297 105q58 0 95 41.5t37 103.5t-37 103.5t-96 41.5t-96.5 -41.5t-37.5 -103.5t38 -103.5t97 -41.5z" />
    <glyph glyph-name="Obreve" unicode="&#x14e;" horiz-adv-x="790" 
d="M545 887q0 -54 -43 -91.5t-106 -37.5t-106.5 37.5t-43.5 91.5h96q0 -22 15 -37.5t40 -15.5q24 0 37.5 15.5t13.5 37.5h97zM396 -10q-153 0 -254 103t-101 257t100.5 257t253.5 103q152 0 253 -103t101 -257t-101 -257t-252 -103zM396 121q91 0 151 65.5t60 163.5
t-60.5 163.5t-151.5 65.5t-152 -65.5t-61 -163.5t61 -163.5t153 -65.5z" />
    <glyph glyph-name="obreve" unicode="&#x14f;" horiz-adv-x="592" 
d="M439 690q0 -52 -41 -87.5t-101 -35.5t-101.5 35.5t-41.5 87.5h92q0 -21 14 -36t38 -15t36.5 14.5t12.5 36.5h92zM297 -10q-112 0 -188.5 73t-76.5 187t76 187t188 73t187.5 -72.5t75.5 -187.5q0 -114 -75 -187t-187 -73zM297 105q58 0 95 41.5t37 103.5t-37 103.5
t-96 41.5t-96.5 -41.5t-37.5 -103.5t38 -103.5t97 -41.5z" />
    <glyph glyph-name="Ohungarumlaut" unicode="&#x150;" horiz-adv-x="790" 
d="M333 901h125l-109 -147h-96zM520 901h126l-111 -147h-95zM396 -10q-153 0 -254 103t-101 257t100.5 257t253.5 103q152 0 253 -103t101 -257t-101 -257t-252 -103zM396 121q91 0 151 65.5t60 163.5t-60.5 163.5t-151.5 65.5t-152 -65.5t-61 -163.5t61 -163.5t153 -65.5z
" />
    <glyph glyph-name="ohungarumlaut" unicode="&#x151;" horiz-adv-x="592" 
d="M222 695h119l-104 -140h-91zM400 695h120l-106 -140h-90zM297 -10q-112 0 -188.5 73t-76.5 187t76 187t188 73t187.5 -72.5t75.5 -187.5q0 -114 -75 -187t-187 -73zM297 105q58 0 95 41.5t37 103.5t-37 103.5t-96 41.5t-96.5 -41.5t-37.5 -103.5t38 -103.5t97 -41.5z" />
    <glyph glyph-name="OE" unicode="&#x152;" horiz-adv-x="1112" 
d="M747 123h342v-123h-473v64q-93 -74 -220 -74q-153 0 -254 103t-101 257t100.5 257t253.5 103q127 0 221 -74v64h463v-123h-332v-164h286v-117h-286v-173zM396 121q91 0 151 65.5t60 163.5t-60.5 163.5t-151.5 65.5t-152 -65.5t-61 -163.5t61 -163.5t153 -65.5z" />
    <glyph glyph-name="oe" unicode="&#x153;" horiz-adv-x="956" 
d="M798 158h123q-17 -79 -82 -123.5t-153 -44.5q-124 0 -194 81q-76 -81 -195 -81q-112 0 -188.5 73t-76.5 187t76 187t188 73q121 0 197 -82q71 82 184 82q52 0 96.5 -16.5t80 -50.5t53 -92.5t11.5 -135.5h-361q0 -1 -0.5 -3t-0.5 -3q18 -113 132 -113q37 0 67 16.5
t43 45.5zM683 408q-47 0 -79 -26t-44 -73h238q-2 40 -33.5 69.5t-81.5 29.5zM297 105q58 0 95 41.5t37 103.5t-37 103.5t-96 41.5t-96.5 -41.5t-37.5 -103.5t38 -103.5t97 -41.5z" />
    <glyph glyph-name="Racute" unicode="&#x154;" horiz-adv-x="600" 
d="M446 901l-117 -147h-95l69 147h143zM577 0h-144l-140 258h-103v-258h-130v700h260q105 0 169.5 -59.5t64.5 -159.5q0 -68 -35 -120.5t-96 -79.5zM190 576v-195h117q51 0 81 27.5t30 70.5q0 45 -29.5 71t-81.5 26h-117z" />
    <glyph glyph-name="racute" unicode="&#x155;" horiz-adv-x="405" 
d="M240 695h136l-111 -140h-91zM345 510h36v-130q-27 6 -52 6q-60 0 -99.5 -41t-39.5 -125v-220h-135v500h106l18 -69h11q56 79 155 79z" />
    <glyph glyph-name="Rcommaaccent" unicode="&#x156;" horiz-adv-x="600" 
d="M423 281l154 -281h-144l-140 258h-103v-258h-130v700h260q105 0 169.5 -59.5t64.5 -159.5q0 -68 -35 -120.5t-96 -79.5zM190 576v-195h117q51 0 81 27.5t30 70.5q0 45 -29.5 71t-81.5 26h-117zM304 -49q38 0 61 -30t23 -77q0 -68 -37 -118t-87 -74l-29 34q66 54 69 107
q-30 -5 -54 17t-24 61q0 36 22.5 58t55.5 22z" />
    <glyph glyph-name="rcommaaccent" unicode="&#x157;" horiz-adv-x="405" 
d="M345 510h36v-130q-27 6 -52 6q-60 0 -99.5 -41t-39.5 -125v-220h-135v500h106l18 -69h11q56 79 155 79zM120 -49q38 0 60 -29.5t22 -75.5q0 -68 -36.5 -116.5t-85.5 -72.5l-28 33q65 55 68 106q-30 -5 -53.5 16t-23.5 60q0 36 22 57.5t55 21.5z" />
    <glyph glyph-name="Rcaron" unicode="&#x158;" horiz-adv-x="600" 
d="M340 757h-104l-123 151h114l55 -73h12l54 73h115zM577 0h-144l-140 258h-103v-258h-130v700h260q105 0 169.5 -59.5t64.5 -159.5q0 -68 -35 -120.5t-96 -79.5zM190 576v-195h117q51 0 81 27.5t30 70.5q0 45 -29.5 71t-81.5 26h-117z" />
    <glyph glyph-name="rcaron" unicode="&#x159;" horiz-adv-x="405" 
d="M280 700h113l-121 -149h-102l-121 149h112l54 -72h12zM345 510h36v-130q-27 6 -52 6q-60 0 -99.5 -41t-39.5 -125v-220h-135v500h106l18 -69h11q56 79 155 79z" />
    <glyph glyph-name="Sacute" unicode="&#x15a;" horiz-adv-x="586" 
d="M307 901h143l-117 -147h-95zM545 185q0 -95 -67 -145t-177 -50q-122 0 -190.5 66t-69.5 172h134q1 -56 33 -89t96 -33q45 0 74 20.5t29 59.5t-31.5 64t-109.5 52q-97 34 -150.5 81t-53.5 126q0 93 64 147t164 54q110 0 173.5 -61.5t64.5 -151.5h-124q-4 42 -32.5 69.5
t-81.5 27.5q-41 0 -66.5 -20.5t-25.5 -54.5t29.5 -57t99.5 -50q110 -42 164 -92t54 -135z" />
    <glyph glyph-name="sacute" unicode="&#x15b;" horiz-adv-x="479" 
d="M258 695h136l-111 -140h-91zM447 138q0 -71 -55 -109.5t-143 -38.5q-96 0 -154 48t-63 131h126q2 -40 29.5 -59.5t63.5 -19.5q29 0 48.5 12.5t19.5 35.5q0 26 -24 41.5t-75 28.5q-35 10 -59 19t-53 26t-44.5 44t-15.5 62q0 68 54.5 109.5t138.5 41.5q85 0 137.5 -44.5
t57.5 -113.5h-121q-3 26 -25 42.5t-55 16.5q-25 0 -41.5 -12t-16.5 -33q0 -22 22 -36t77 -30q83 -24 127 -60.5t44 -101.5z" />
    <glyph glyph-name="Scircumflex" unicode="&#x15c;" horiz-adv-x="586" 
d="M231 767h-115l123 151h104l123 -151h-114l-55 73h-12zM545 185q0 -95 -67 -145t-177 -50q-122 0 -190.5 66t-69.5 172h134q1 -56 33 -89t96 -33q45 0 74 20.5t29 59.5t-31.5 64t-109.5 52q-97 34 -150.5 81t-53.5 126q0 93 64 147t164 54q110 0 173.5 -61.5t64.5 -151.5
h-124q-4 42 -32.5 69.5t-81.5 27.5q-41 0 -66.5 -20.5t-25.5 -54.5t29.5 -57t99.5 -50q110 -42 164 -92t54 -135z" />
    <glyph glyph-name="scircumflex" unicode="&#x15d;" horiz-adv-x="479" 
d="M179 551h-113l121 149h102l121 -149h-112l-54 72h-12zM447 138q0 -71 -55 -109.5t-143 -38.5q-96 0 -154 48t-63 131h126q2 -40 29.5 -59.5t63.5 -19.5q29 0 48.5 12.5t19.5 35.5q0 26 -24 41.5t-75 28.5q-35 10 -59 19t-53 26t-44.5 44t-15.5 62q0 68 54.5 109.5
t138.5 41.5q85 0 137.5 -44.5t57.5 -113.5h-121q-3 26 -25 42.5t-55 16.5q-25 0 -41.5 -12t-16.5 -33q0 -22 22 -36t77 -30q83 -24 127 -60.5t44 -101.5z" />
    <glyph glyph-name="Scedilla" unicode="&#x15e;" horiz-adv-x="586" 
d="M545 185q0 -86 -55 -135t-148 -58l-26 -36q39 7 69.5 -17.5t30.5 -66.5t-28 -65.5t-80 -23.5q-34 0 -61 15t-36 27t-15 23l52 31q20 -34 57 -34q39 0 39 32q0 30 -41 30q-18 0 -32 -10l-43 44l35 51q-105 10 -163 74.5t-59 161.5h134q1 -56 33 -89t96 -33q45 0 74 20.5
t29 59.5t-31.5 64t-109.5 52q-97 34 -150.5 81t-53.5 126q0 93 64 147t164 54q110 0 173.5 -61.5t64.5 -151.5h-124q-4 42 -32.5 69.5t-81.5 27.5q-41 0 -66.5 -20.5t-25.5 -54.5t29.5 -57t99.5 -50q110 -42 164 -92t54 -135z" />
    <glyph glyph-name="scedilla" unicode="&#x15f;" horiz-adv-x="479" 
d="M447 138q0 -63 -45 -101t-119 -45l-25 -35q37 7 67 -17t30 -64t-27.5 -63t-77.5 -23q-33 0 -59 14.5t-35.5 26.5t-13.5 22l50 30q20 -33 55 -33q38 0 38 31q0 13 -10.5 21t-29.5 8q-17 0 -31 -10l-41 43l33 50q-78 10 -124 56.5t-50 119.5h126q2 -40 29.5 -59.5
t63.5 -19.5q29 0 48.5 12.5t19.5 35.5q0 26 -24 41.5t-75 28.5q-35 10 -59 19t-53 26t-44.5 44t-15.5 62q0 68 54.5 109.5t138.5 41.5q85 0 137.5 -44.5t57.5 -113.5h-121q-3 26 -25 42.5t-55 16.5q-25 0 -41.5 -12t-16.5 -33q0 -22 22 -36t77 -30q83 -24 127 -60.5
t44 -101.5z" />
    <glyph glyph-name="Scaron" unicode="&#x160;" horiz-adv-x="586" 
d="M352 908h115l-123 -151h-104l-123 151h114l55 -73h12zM545 185q0 -95 -67 -145t-177 -50q-122 0 -190.5 66t-69.5 172h134q1 -56 33 -89t96 -33q45 0 74 20.5t29 59.5t-31.5 64t-109.5 52q-97 34 -150.5 81t-53.5 126q0 93 64 147t164 54q110 0 173.5 -61.5t64.5 -151.5
h-124q-4 42 -32.5 69.5t-81.5 27.5q-41 0 -66.5 -20.5t-25.5 -54.5t29.5 -57t99.5 -50q110 -42 164 -92t54 -135z" />
    <glyph glyph-name="scaron" unicode="&#x161;" horiz-adv-x="479" 
d="M298 700h113l-121 -149h-102l-121 149h112l54 -72h12zM447 138q0 -71 -55 -109.5t-143 -38.5q-96 0 -154 48t-63 131h126q2 -40 29.5 -59.5t63.5 -19.5q29 0 48.5 12.5t19.5 35.5q0 26 -24 41.5t-75 28.5q-35 10 -59 19t-53 26t-44.5 44t-15.5 62q0 68 54.5 109.5
t138.5 41.5q85 0 137.5 -44.5t57.5 -113.5h-121q-3 26 -25 42.5t-55 16.5q-25 0 -41.5 -12t-16.5 -33q0 -22 22 -36t77 -30q83 -24 127 -60.5t44 -101.5z" />
    <glyph glyph-name="uni0162" unicode="&#x162;" horiz-adv-x="566" 
d="M349 0h-23l-32 -44q39 7 69.5 -17.5t30.5 -66.5t-28 -65.5t-80 -23.5q-34 0 -61 15t-36 27t-15 23l52 31q20 -34 57 -34q39 0 39 32q0 30 -41 30q-18 0 -32 -10l-43 44l40 59h-31v576h-193v124h521v-124h-194v-576z" />
    <glyph glyph-name="uni0163" unicode="&#x163;" horiz-adv-x="397" 
d="M374 396h-124v-234q0 -58 46 -58q22 0 47 14l27 -101q-36 -22 -80 -26l-29 -40q37 7 67 -17t30 -64t-27.5 -63t-77.5 -23q-33 0 -59 14.5t-35.5 26.5t-13.5 22l50 30q20 -33 55 -33q38 0 38 31q0 13 -10.5 21t-29.5 8q-17 0 -31 -10l-41 43l40 59q-96 27 -96 154v246h-98
v95h31q38 0 58.5 18.5t20.5 51.5v65h118v-126h124v-104z" />
    <glyph glyph-name="Tcaron" unicode="&#x164;" horiz-adv-x="566" 
d="M335 757h-104l-123 151h114l55 -73h12l54 73h115zM543 700v-124h-194v-576h-134v576h-193v124h521z" />
    <glyph glyph-name="tcaron" unicode="&#x165;" horiz-adv-x="397" 
d="M330 700h107l-36 -153h-85zM370 17q-44 -27 -98 -27q-152 0 -152 160v246h-98v95h31q38 0 58.5 18.5t20.5 51.5v65h118v-126h124v-104h-124v-234q0 -58 46 -58q22 0 47 14z" />
    <glyph glyph-name="Tbar" unicode="&#x166;" horiz-adv-x="566" 
d="M543 576h-194v-175h135v-99h-135v-302h-134v302h-133v99h133v175h-193v124h521v-124z" />
    <glyph glyph-name="tbar" unicode="&#x167;" horiz-adv-x="397" 
d="M374 396h-124v-73h121v-91h-121v-70q0 -58 46 -58q22 0 47 14l27 -101q-44 -27 -98 -27q-152 0 -152 160v82h-93v91h93v73h-98v95h31q38 0 58.5 18.5t20.5 51.5v65h118v-126h124v-104z" />
    <glyph glyph-name="Utilde" unicode="&#x168;" horiz-adv-x="694" 
d="M546 857q-12 -39 -43 -71.5t-81 -32.5q-41 0 -82 26.5t-62 26.5q-37 0 -58 -47l-72 37q13 39 43.5 71t79.5 32q41 0 83 -25.5t62 -25.5q37 0 59 47zM633 700v-410q0 -149 -79.5 -224.5t-205.5 -75.5q-127 0 -207.5 75.5t-80.5 224.5v410h142v-415q0 -77 39.5 -121.5
t107.5 -44.5q67 0 105 44t38 122v415h141z" />
    <glyph glyph-name="utilde" unicode="&#x169;" horiz-adv-x="589" 
d="M482 646q-12 -37 -41.5 -68t-76.5 -31q-39 0 -78 25t-59 25q-35 0 -56 -45l-68 36q12 37 41 67.5t76 30.5q39 0 78.5 -24.5t59.5 -24.5q36 0 56 45zM248 -10q-87 0 -140.5 59t-53.5 168v283h135v-261q0 -64 29 -97t77 -33q44 0 73.5 31.5t29.5 95.5v264h135v-500h-105
l-17 61h-11q-16 -20 -29.5 -32.5t-46.5 -25.5t-76 -13z" />
    <glyph glyph-name="Umacron" unicode="&#x16a;" horiz-adv-x="694" 
d="M174 852h345v-92h-345v92zM633 700v-410q0 -149 -79.5 -224.5t-205.5 -75.5q-127 0 -207.5 75.5t-80.5 224.5v410h142v-415q0 -77 39.5 -121.5t107.5 -44.5q67 0 105 44t38 122v415h141z" />
    <glyph glyph-name="umacron" unicode="&#x16b;" horiz-adv-x="589" 
d="M128 656h329v-87h-329v87zM248 -10q-87 0 -140.5 59t-53.5 168v283h135v-261q0 -64 29 -97t77 -33q44 0 73.5 31.5t29.5 95.5v264h135v-500h-105l-17 61h-11q-16 -20 -29.5 -32.5t-46.5 -25.5t-76 -13z" />
    <glyph glyph-name="Ubreve" unicode="&#x16c;" horiz-adv-x="694" 
d="M497 887q0 -54 -43 -91.5t-106 -37.5t-106.5 37.5t-43.5 91.5h96q0 -22 15 -37.5t40 -15.5q24 0 37.5 15.5t13.5 37.5h97zM633 700v-410q0 -149 -79.5 -224.5t-205.5 -75.5q-127 0 -207.5 75.5t-80.5 224.5v410h142v-415q0 -77 39.5 -121.5t107.5 -44.5q67 0 105 44
t38 122v415h141z" />
    <glyph glyph-name="ubreve" unicode="&#x16d;" horiz-adv-x="589" 
d="M435 690q0 -52 -41 -87.5t-101 -35.5t-101.5 35.5t-41.5 87.5h92q0 -21 14 -36t38 -15t36.5 14.5t12.5 36.5h92zM248 -10q-87 0 -140.5 59t-53.5 168v283h135v-261q0 -64 29 -97t77 -33q44 0 73.5 31.5t29.5 95.5v264h135v-500h-105l-17 61h-11q-16 -20 -29.5 -32.5
t-46.5 -25.5t-76 -13z" />
    <glyph glyph-name="Uring" unicode="&#x16e;" horiz-adv-x="694" 
d="M347 746q-47 0 -81 33.5t-34 79.5q0 47 34 80.5t81 33.5t81.5 -34t34.5 -80t-34.5 -79.5t-81.5 -33.5zM348 825q14 0 24.5 10t10.5 24t-10.5 25t-24.5 11t-24 -11t-10 -25t10 -24t24 -10zM633 700v-410q0 -149 -79.5 -224.5t-205.5 -75.5q-127 0 -207.5 75.5t-80.5 224.5
v410h142v-415q0 -77 39.5 -121.5t107.5 -44.5q67 0 105 44t38 122v415h141z" />
    <glyph glyph-name="uring" unicode="&#x16f;" horiz-adv-x="589" 
d="M291 533q-41 0 -70.5 29t-29.5 70t29.5 70t70.5 29t71 -29.5t30 -69.5t-30 -69.5t-71 -29.5zM292 602q12 0 21 9t9 21t-9 21.5t-21 9.5t-21 -9.5t-9 -21.5t8.5 -21t21.5 -9zM248 -10q-87 0 -140.5 59t-53.5 168v283h135v-261q0 -64 29 -97t77 -33q44 0 73.5 31.5
t29.5 95.5v264h135v-500h-105l-17 61h-11q-16 -20 -29.5 -32.5t-46.5 -25.5t-76 -13z" />
    <glyph glyph-name="Uhungarumlaut" unicode="&#x170;" horiz-adv-x="694" 
d="M285 901h125l-109 -147h-96zM472 901h126l-111 -147h-95zM633 700v-410q0 -149 -79.5 -224.5t-205.5 -75.5q-127 0 -207.5 75.5t-80.5 224.5v410h142v-415q0 -77 39.5 -121.5t107.5 -44.5q67 0 105 44t38 122v415h141z" />
    <glyph glyph-name="uhungarumlaut" unicode="&#x171;" horiz-adv-x="589" 
d="M218 695h119l-104 -140h-91zM396 695h120l-106 -140h-90zM248 -10q-87 0 -140.5 59t-53.5 168v283h135v-261q0 -64 29 -97t77 -33q44 0 73.5 31.5t29.5 95.5v264h135v-500h-105l-17 61h-11q-16 -20 -29.5 -32.5t-46.5 -25.5t-76 -13z" />
    <glyph glyph-name="Uogonek" unicode="&#x172;" horiz-adv-x="694" 
d="M492 700h141v-410q0 -117 -50 -189t-135 -97q-29 -9 -47.5 -28t-18.5 -40q0 -38 40.5 -47.5t68.5 11.5v-71q-21 -15 -65 -15q-50 0 -84.5 27.5t-34.5 75.5q0 45 39 73h-13q-121 5 -197 80t-76 220v410h142v-415q0 -77 39.5 -121.5t107.5 -44.5q67 0 105 44t38 122v415z
" />
    <glyph glyph-name="uogonek" unicode="&#x173;" horiz-adv-x="589" 
d="M468 -63q0 -38 39.5 -46.5t66.5 11.5v-69q-18 -16 -64 -16q-49 0 -83 27t-34 75q0 50 50 81h-15l-17 61h-11q-16 -20 -29.5 -32.5t-46.5 -25.5t-76 -13q-87 0 -140.5 59t-53.5 168v283h135v-261q0 -64 29 -97t77 -33q44 0 73.5 31.5t29.5 95.5v264h135v-500
q-29 -7 -47 -24.5t-18 -38.5z" />
    <glyph glyph-name="Wcircumflex" unicode="&#x174;" horiz-adv-x="898" 
d="M387 767h-115l123 151h104l123 -151h-114l-55 73h-12zM755 700h129l-130 -700h-187l-113 460h-11l-112 -460h-187l-131 700h131l94 -526h11l116 476h168l116 -476h10z" />
    <glyph glyph-name="wcircumflex" unicode="&#x175;" horiz-adv-x="763" 
d="M322 551h-113l121 149h102l121 -149h-112l-54 72h-12zM624 500h121l-122 -500h-153l-83 330h-11l-83 -330h-153l-121 500h120l79 -361h10l83 329h142l84 -329h11z" />
    <glyph glyph-name="Ycircumflex" unicode="&#x176;" horiz-adv-x="656" 
d="M267 767h-115l123 151h104l123 -151h-114l-55 73h-12zM483 700h159l-243 -392v-308h-142v308l-244 392h159l150 -245h11z" />
    <glyph glyph-name="ycircumflex" unicode="&#x177;" horiz-adv-x="579" 
d="M231 551h-113l121 149h102l121 -149h-112l-54 72h-12zM427 500h134l-179 -540q-27 -82 -74 -126t-133 -44t-132 46l53 92q34 -29 72 -29q28 0 51.5 20.5t33.5 51.5l10 29h-50l-194 500h140l138 -368h11z" />
    <glyph glyph-name="Ydieresis" unicode="&#x178;" horiz-adv-x="656" 
d="M212 753q-32 0 -55 22.5t-23 54.5q0 33 23 55.5t55 22.5q31 0 54 -22.5t23 -55.5q0 -31 -23 -54t-54 -23zM445 753q-31 0 -54 23t-23 54q0 33 23 55.5t54 22.5q32 0 54.5 -22.5t22.5 -55.5q0 -32 -22.5 -54.5t-54.5 -22.5zM483 700h159l-243 -392v-308h-142v308l-244 392
h159l150 -245h11z" />
    <glyph glyph-name="Zacute" unicode="&#x179;" horiz-adv-x="599" 
d="M316 901h143l-117 -147h-95zM232 125h322v-125h-513v99l326 468v9h-308v124h486v-99l-313 -467v-9z" />
    <glyph glyph-name="zacute" unicode="&#x17a;" horiz-adv-x="476" 
d="M259 695h136l-111 -140h-91zM208 108h235v-108h-411v76l227 308v8h-216v108h392v-76l-227 -308v-8z" />
    <glyph glyph-name="Zdotaccent" unicode="&#x17b;" horiz-adv-x="599" 
d="M300 764q-37 0 -64 26.5t-27 62.5q0 39 26.5 64.5t64.5 25.5q37 0 63 -25.5t26 -64.5q0 -36 -26.5 -62.5t-62.5 -26.5zM232 125h322v-125h-513v99l326 468v9h-308v124h486v-99l-313 -467v-9z" />
    <glyph glyph-name="zdotaccent" unicode="&#x17c;" horiz-adv-x="476" 
d="M240 560q-34 0 -58.5 24.5t-24.5 56.5q0 35 24.5 58.5t58.5 23.5t57.5 -23.5t23.5 -58.5q0 -33 -24 -57t-57 -24zM208 108h235v-108h-411v76l227 308v8h-216v108h392v-76l-227 -308v-8z" />
    <glyph glyph-name="Zcaron" unicode="&#x17d;" horiz-adv-x="599" 
d="M361 908h115l-123 -151h-104l-123 151h114l55 -73h12zM232 125h322v-125h-513v99l326 468v9h-308v124h486v-99l-313 -467v-9z" />
    <glyph glyph-name="zcaron" unicode="&#x17e;" horiz-adv-x="476" 
d="M299 700h113l-121 -149h-102l-121 149h112l54 -72h12zM208 108h235v-108h-411v76l227 308v8h-216v108h392v-76l-227 -308v-8z" />
    <glyph glyph-name="florin" unicode="&#x192;" horiz-adv-x="513" 
d="M404 556q-50 0 -60 -56l-18 -99h111l-16 -88h-111l-34 -192q-11 -62 -51 -96.5t-103 -34.5q-65 0 -109 35l42 79q27 -20 54 -20q51 0 61 56l30 173h-108l17 88h106l21 118q10 62 51 96.5t103 34.5q65 0 109 -35l-42 -79q-27 20 -53 20z" />
    <glyph glyph-name="uni01CD" unicode="&#x1cd;" horiz-adv-x="678" 
d="M391 757h-104l-123 151h114l55 -73h12l54 73h115zM520 0l-49 154h-265l-49 -154h-144l237 700h178l236 -700h-144zM243 270h191l-90 283h-11z" />
    <glyph glyph-name="uni01CE" unicode="&#x1ce;" 
d="M316 551h-102l-121 149h112l54 -72h12l53 72h113zM474 150q0 -24 9.5 -34t31.5 -10v-106h-23q-86 0 -109 65q-62 -75 -174 -75q-80 0 -128.5 38t-48.5 107q0 150 224 167l93 7v10q0 43 -22.5 68t-60.5 25q-41 0 -62.5 -24.5t-25.5 -55.5h-123q6 79 62 128.5t148 49.5
q93 0 151 -53t58 -153v-154zM228 92q48 0 84.5 32t36.5 86v10l-63 -5q-123 -11 -123 -72q0 -24 18 -37.5t47 -13.5z" />
    <glyph glyph-name="uni01CF" unicode="&#x1cf;" horiz-adv-x="262" 
d="M191 908h115l-123 -151h-104l-123 151h114l55 -73h12zM201 700v-700h-141v700h141z" />
    <glyph glyph-name="uni01D0" unicode="&#x1d0;" horiz-adv-x="248" 
d="M184 700h113l-121 -149h-102l-121 149h112l54 -72h12zM189 500v-500h-130v500h130z" />
    <glyph glyph-name="uni01D1" unicode="&#x1d1;" horiz-adv-x="790" 
d="M455 908h115l-123 -151h-104l-123 151h114l55 -73h12zM396 -10q-153 0 -254 103t-101 257t100.5 257t253.5 103q152 0 253 -103t101 -257t-101 -257t-252 -103zM396 121q91 0 151 65.5t60 163.5t-60.5 163.5t-151.5 65.5t-152 -65.5t-61 -163.5t61 -163.5t153 -65.5z" />
    <glyph glyph-name="uni01D2" unicode="&#x1d2;" horiz-adv-x="592" 
d="M355 700h113l-121 -149h-102l-121 149h112l54 -72h12zM297 -10q-112 0 -188.5 73t-76.5 187t76 187t188 73t187.5 -72.5t75.5 -187.5q0 -114 -75 -187t-187 -73zM297 105q58 0 95 41.5t37 103.5t-37 103.5t-96 41.5t-96.5 -41.5t-37.5 -103.5t38 -103.5t97 -41.5z" />
    <glyph glyph-name="uni01D3" unicode="&#x1d3;" horiz-adv-x="694" 
d="M407 908h115l-123 -151h-104l-123 151h114l55 -73h12zM633 700v-410q0 -149 -79.5 -224.5t-205.5 -75.5q-127 0 -207.5 75.5t-80.5 224.5v410h142v-415q0 -77 39.5 -121.5t107.5 -44.5q67 0 105 44t38 122v415h141z" />
    <glyph glyph-name="uni01D4" unicode="&#x1d4;" horiz-adv-x="589" 
d="M351 700h113l-121 -149h-102l-121 149h112l54 -72h12zM248 -10q-87 0 -140.5 59t-53.5 168v283h135v-261q0 -64 29 -97t77 -33q44 0 73.5 31.5t29.5 95.5v264h135v-500h-105l-17 61h-11q-16 -20 -29.5 -32.5t-46.5 -25.5t-76 -13z" />
    <glyph glyph-name="uni01E2" unicode="&#x1e2;" horiz-adv-x="985" 
d="M845 852v-92h-345v92h345zM620 123h342v-123h-473v157h-240l-85 -157h-151l378 700h561v-123h-332v-164h286v-117h-286v-173zM315 278h174v296h-13z" />
    <glyph glyph-name="uni01E3" unicode="&#x1e3;" horiz-adv-x="872" 
d="M605 656v-87h-329v87h329zM715 158h123q-17 -79 -82 -123.5t-153 -44.5q-135 0 -206 95q-28 -44 -76.5 -69.5t-111.5 -25.5q-80 0 -128.5 38t-48.5 107q0 81 58.5 124.5t175.5 43.5h83v16q0 43 -22.5 68t-60.5 25q-41 0 -62.5 -24.5t-25.5 -55.5h-123q6 79 62 128.5
t148 49.5q105 0 162 -64q69 64 167 64q52 0 96.5 -16.5t80 -50.5t53 -92.5t11.5 -135.5h-361v-10q20 -109 131 -109q37 0 67 16.5t43 45.5zM600 408q-47 0 -79 -26t-44 -73h238q-2 40 -33.5 69.5t-81.5 29.5zM228 92q48 0 84.5 32t36.5 86v2h-73q-113 0 -113 -69
q0 -24 18 -37.5t47 -13.5z" />
    <glyph glyph-name="Gcaron" unicode="&#x1e6;" horiz-adv-x="736" 
d="M426 908h115l-123 -151h-104l-123 151h114l55 -73h12zM358 379h316v-379h-92l-19 70h-11q-27 -30 -77 -55t-123 -25q-144 0 -227.5 96.5t-83.5 249.5q0 164 91.5 269t235.5 105q136 0 212.5 -64.5t87.5 -165.5h-140q-9 44 -50 74t-101 30q-91 0 -144 -68.5t-53 -174.5
q0 -103 51.5 -165.5t152.5 -62.5q92 0 157 65v94h-183v107z" />
    <glyph glyph-name="gcaron" unicode="&#x1e7;" horiz-adv-x="544" 
d="M316 551h-102l-121 149h112l54 -72h12l53 72h113zM525 469q-21 -26 -78 -48q25 -41 25 -89q0 -74 -59 -118t-151 -44q-37 0 -66 7q-34 -12 -34 -31q0 -36 74 -36h79q92 0 138.5 -40.5t46.5 -109.5q0 -77 -62.5 -123.5t-170.5 -46.5q-111 0 -173 51.5t-62 125.5l70 59
q-55 26 -55 85q0 65 74 99q-66 47 -66 127q0 75 55 124.5t147 49.5q73 0 129 -32q40 23 79 68zM264 262q38 0 61 22.5t23 55.5q0 34 -23 57t-60 23q-39 0 -62 -22.5t-23 -57.5q0 -33 23 -55.5t61 -22.5zM373 -47q0 58 -82 58h-73l-60 -48q16 -72 115 -72q46 0 73 16.5
t27 45.5z" />
    <glyph glyph-name="uni01EA" unicode="&#x1ea;" horiz-adv-x="790" 
d="M528 14q-30 -12 -48 -33t-18 -44q1 -39 41 -48.5t68 11.5v-71q-19 -15 -65 -15q-50 0 -84.5 27.5t-34.5 76.5q0 43 38 74q-18 -2 -29 -2q-153 0 -254 103t-101 257t100.5 257t253.5 103q152 0 253 -103t101 -257q0 -116 -60.5 -206.5t-160.5 -129.5zM396 121
q91 0 151 65.5t60 163.5t-60.5 163.5t-151.5 65.5t-152 -65.5t-61 -163.5t61 -163.5t153 -65.5z" />
    <glyph glyph-name="uni01EB" unicode="&#x1eb;" horiz-adv-x="592" 
d="M559 250q0 -93 -51.5 -160t-134.5 -90h-1q-1 -1 -4 -1q-26 -8 -43 -25t-17 -37q0 -38 39.5 -46.5t66.5 11.5v-69q-18 -16 -64 -16q-49 0 -83 27t-34 75q0 43 37 72q-103 9 -170.5 80.5t-67.5 178.5q0 114 76 187t188 73t187.5 -72.5t75.5 -187.5zM297 105q58 0 95 41.5
t37 103.5t-37 103.5t-96 41.5t-96.5 -41.5t-37.5 -103.5t38 -103.5t97 -41.5z" />
    <glyph glyph-name="uni01F4" unicode="&#x1f4;" horiz-adv-x="736" 
d="M381 901h143l-117 -147h-95zM358 379h316v-379h-92l-19 70h-11q-27 -30 -77 -55t-123 -25q-144 0 -227.5 96.5t-83.5 249.5q0 164 91.5 269t235.5 105q136 0 212.5 -64.5t87.5 -165.5h-140q-9 44 -50 74t-101 30q-91 0 -144 -68.5t-53 -174.5q0 -103 51.5 -165.5
t152.5 -62.5q92 0 157 65v94h-183v107z" />
    <glyph glyph-name="uni01F5" unicode="&#x1f5;" horiz-adv-x="544" 
d="M420 695l-111 -140h-91l66 140h136zM525 469q-21 -26 -78 -48q25 -41 25 -89q0 -74 -59 -118t-151 -44q-37 0 -66 7q-34 -12 -34 -31q0 -36 74 -36h79q92 0 138.5 -40.5t46.5 -109.5q0 -77 -62.5 -123.5t-170.5 -46.5q-111 0 -173 51.5t-62 125.5l70 59q-55 26 -55 85
q0 65 74 99q-66 47 -66 127q0 75 55 124.5t147 49.5q73 0 129 -32q40 23 79 68zM264 262q38 0 61 22.5t23 55.5q0 34 -23 57t-60 23q-39 0 -62 -22.5t-23 -57.5q0 -33 23 -55.5t61 -22.5zM373 -47q0 58 -82 58h-73l-60 -48q16 -72 115 -72q46 0 73 16.5t27 45.5z" />
    <glyph glyph-name="uni01F8" unicode="&#x1f8;" horiz-adv-x="697" 
d="M334 901l69 -147h-95l-117 147h143zM507 700h130v-700h-130l-305 455h-11v-455h-131v700h139l297 -452h11v452z" />
    <glyph glyph-name="uni01F9" unicode="&#x1f9;" horiz-adv-x="589" 
d="M279 695l66 -140h-91l-111 140h136zM343 510q86 0 140.5 -59.5t54.5 -167.5v-283h-135v261q0 64 -29.5 97t-77.5 33q-44 0 -74.5 -32t-30.5 -95v-264h-136v500h106l17 -61h11q16 20 30 32.5t47.5 25.5t76.5 13z" />
    <glyph glyph-name="AEacute" unicode="&#x1fc;" horiz-adv-x="985" 
d="M831 901l-117 -147h-95l69 147h143zM620 123h342v-123h-473v157h-240l-85 -157h-151l378 700h561v-123h-332v-164h286v-117h-286v-173zM315 278h174v296h-13z" />
    <glyph glyph-name="aeacute" unicode="&#x1fd;" horiz-adv-x="872" 
d="M595 695l-111 -140h-91l66 140h136zM715 158h123q-17 -79 -82 -123.5t-153 -44.5q-135 0 -206 95q-28 -44 -76.5 -69.5t-111.5 -25.5q-80 0 -128.5 38t-48.5 107q0 81 58.5 124.5t175.5 43.5h83v16q0 43 -22.5 68t-60.5 25q-41 0 -62.5 -24.5t-25.5 -55.5h-123
q6 79 62 128.5t148 49.5q105 0 162 -64q69 64 167 64q52 0 96.5 -16.5t80 -50.5t53 -92.5t11.5 -135.5h-361v-10q20 -109 131 -109q37 0 67 16.5t43 45.5zM600 408q-47 0 -79 -26t-44 -73h238q-2 40 -33.5 69.5t-81.5 29.5zM228 92q48 0 84.5 32t36.5 86v2h-73
q-113 0 -113 -69q0 -24 18 -37.5t47 -13.5z" />
    <glyph glyph-name="Oslashacute" unicode="&#x1fe;" horiz-adv-x="790" 
d="M553 901l-117 -147h-95l69 147h143zM643 612q106 -104 106 -262q0 -154 -101 -257t-252 -103q-89 0 -163 37l-39 -55l-84 62l37 53q-106 104 -106 263q0 154 100.5 257t253.5 103q89 0 161 -37l37 53l86 -63zM182 350q0 -84 46 -146l250 358q-39 17 -83 17
q-91 0 -152 -65.5t-61 -163.5zM396 121q91 0 151 65.5t60 163.5q0 85 -46 145l-250 -357q40 -17 85 -17z" />
    <glyph glyph-name="oslashacute" unicode="&#x1ff;" horiz-adv-x="592" 
d="M451 695l-111 -140h-91l66 140h136zM481 439q78 -73 78 -189q0 -114 -75 -187t-187 -73q-60 0 -116 24l-27 -37l-72 50l26 37q-76 73 -76 186q0 114 76 187t188 73q59 0 112 -22l27 38l73 -49zM162 250q0 -46 21 -80l155 219q-20 6 -42 6q-59 0 -96.5 -41.5t-37.5 -103.5
zM297 105q58 0 95 41.5t37 103.5q0 46 -22 84l-157 -221q24 -8 47 -8z" />
    <glyph glyph-name="Scommaaccent" unicode="&#x218;" horiz-adv-x="586" 
d="M545 185q0 -95 -67 -145t-177 -50q-122 0 -190.5 66t-69.5 172h134q1 -56 33 -89t96 -33q45 0 74 20.5t29 59.5t-31.5 64t-109.5 52q-97 34 -150.5 81t-53.5 126q0 93 64 147t164 54q110 0 173.5 -61.5t64.5 -151.5h-124q-4 42 -32.5 69.5t-81.5 27.5q-41 0 -66.5 -20.5
t-25.5 -54.5t29.5 -57t99.5 -50q110 -42 164 -92t54 -135zM302 -49q38 0 61 -30t23 -77q0 -68 -37 -118t-87 -74l-29 34q66 54 69 107q-30 -5 -54 17t-24 61q0 36 22.5 58t55.5 22z" />
    <glyph glyph-name="scommaaccent" unicode="&#x219;" horiz-adv-x="479" 
d="M447 138q0 -71 -55 -109.5t-143 -38.5q-96 0 -154 48t-63 131h126q2 -40 29.5 -59.5t63.5 -19.5q29 0 48.5 12.5t19.5 35.5q0 26 -24 41.5t-75 28.5q-35 10 -59 19t-53 26t-44.5 44t-15.5 62q0 68 54.5 109.5t138.5 41.5q85 0 137.5 -44.5t57.5 -113.5h-121
q-3 26 -25 42.5t-55 16.5q-25 0 -41.5 -12t-16.5 -33q0 -22 22 -36t77 -30q83 -24 127 -60.5t44 -101.5zM245 -49q38 0 60 -29.5t22 -75.5q0 -68 -36.5 -116.5t-85.5 -72.5l-28 33q65 55 68 106q-30 -5 -53.5 16t-23.5 60q0 36 22 57.5t55 21.5z" />
    <glyph glyph-name="uni021A" unicode="&#x21a;" horiz-adv-x="566" 
d="M22 700h521v-124h-194v-576h-134v576h-193v124zM280 -49q38 0 61 -30t23 -77q0 -68 -37 -118t-87 -74l-29 34q66 54 69 107q-30 -5 -54 17t-24 61q0 36 22.5 58t55.5 22z" />
    <glyph glyph-name="uni021B" unicode="&#x21b;" horiz-adv-x="397" 
d="M370 17q-44 -27 -98 -27q-152 0 -152 160v246h-98v95h31q38 0 58.5 18.5t20.5 51.5v65h118v-126h124v-104h-124v-234q0 -58 46 -58q22 0 47 14zM248 -55q38 0 60 -29.5t22 -75.5q0 -68 -36.5 -116.5t-85.5 -72.5l-28 33q65 55 68 106q-30 -5 -53.5 16t-23.5 60
q0 36 22 57.5t55 21.5z" />
    <glyph glyph-name="uni021E" unicode="&#x21e;" horiz-adv-x="675" 
d="M394 908h115l-123 -151h-104l-123 151h114l55 -73h12zM478 700h136v-700h-136v294h-282v-294h-136v700h136v-284h282v284z" />
    <glyph glyph-name="uni0226" unicode="&#x226;" horiz-adv-x="678" 
d="M338 764q-37 0 -64 26.5t-27 62.5q0 39 26.5 64.5t64.5 25.5q37 0 63 -25.5t26 -64.5q0 -36 -26.5 -62.5t-62.5 -26.5zM520 0l-49 154h-265l-49 -154h-144l237 700h178l236 -700h-144zM243 270h191l-90 283h-11z" />
    <glyph glyph-name="uni0227" unicode="&#x227;" 
d="M265 560q-34 0 -58.5 24.5t-24.5 56.5q0 35 24.5 58.5t58.5 23.5t57.5 -23.5t23.5 -58.5q0 -33 -24 -57t-57 -24zM474 150q0 -24 9.5 -34t31.5 -10v-106h-23q-86 0 -109 65q-62 -75 -174 -75q-80 0 -128.5 38t-48.5 107q0 150 224 167l93 7v10q0 43 -22.5 68t-60.5 25
q-41 0 -62.5 -24.5t-25.5 -55.5h-123q6 79 62 128.5t148 49.5q93 0 151 -53t58 -153v-154zM228 92q48 0 84.5 32t36.5 86v10l-63 -5q-123 -11 -123 -72q0 -24 18 -37.5t47 -13.5z" />
    <glyph glyph-name="uni0228" unicode="&#x228;" horiz-adv-x="556" 
d="M533 0h-185l-32 -44q39 7 69.5 -17.5t30.5 -66.5t-28 -65.5t-80 -23.5q-34 0 -61 15t-36 27t-15 23l52 31q20 -34 57 -34q39 0 39 32q0 30 -41 30q-18 0 -32 -10l-43 44l40 59h-208v700h463v-123h-332v-164h286v-117h-286v-173h342v-123z" />
    <glyph glyph-name="uni0229" unicode="&#x229;" horiz-adv-x="557" 
d="M523 158q-16 -73 -72.5 -116.5t-134.5 -50.5l-25 -34q37 7 67 -17t30 -64t-27.5 -63t-77.5 -23q-33 0 -59 14.5t-35.5 26.5t-13.5 22l50 30q20 -33 55 -33q38 0 38 31q0 13 -10.5 21t-29.5 8q-17 0 -31 -10l-41 43l34 51q-96 14 -152 83.5t-56 173.5q0 114 71 186.5
t176 72.5q52 0 96.5 -16.5t80 -50.5t53 -92.5t11.5 -135.5h-363q17 -119 133 -119q37 0 67 16.5t43 45.5h123zM285 408q-47 0 -79 -26t-44 -73h238q-2 40 -33.5 69.5t-81.5 29.5z" />
    <glyph glyph-name="uni022E" unicode="&#x22e;" horiz-adv-x="790" 
d="M394 764q-37 0 -64 26.5t-27 62.5q0 39 26.5 64.5t64.5 25.5q37 0 63 -25.5t26 -64.5q0 -36 -26.5 -62.5t-62.5 -26.5zM396 -10q-153 0 -254 103t-101 257t100.5 257t253.5 103q152 0 253 -103t101 -257t-101 -257t-252 -103zM396 121q91 0 151 65.5t60 163.5
t-60.5 163.5t-151.5 65.5t-152 -65.5t-61 -163.5t61 -163.5t153 -65.5z" />
    <glyph glyph-name="uni022F" unicode="&#x22f;" horiz-adv-x="592" 
d="M296 560q-34 0 -58.5 24.5t-24.5 56.5q0 35 24.5 58.5t58.5 23.5t57.5 -23.5t23.5 -58.5q0 -33 -24 -57t-57 -24zM297 -10q-112 0 -188.5 73t-76.5 187t76 187t188 73t187.5 -72.5t75.5 -187.5q0 -114 -75 -187t-187 -73zM297 105q58 0 95 41.5t37 103.5t-37 103.5
t-96 41.5t-96.5 -41.5t-37.5 -103.5t38 -103.5t97 -41.5z" />
    <glyph glyph-name="uni0232" unicode="&#x232;" horiz-adv-x="656" 
d="M155 852h345v-92h-345v92zM483 700h159l-243 -392v-308h-142v308l-244 392h159l150 -245h11z" />
    <glyph glyph-name="uni0233" unicode="&#x233;" horiz-adv-x="579" 
d="M127 656h329v-87h-329v87zM427 500h134l-179 -540q-27 -82 -74 -126t-133 -44t-132 46l53 92q34 -29 72 -29q28 0 51.5 20.5t33.5 51.5l10 29h-50l-194 500h140l138 -368h11z" />
    <glyph glyph-name="uni0237" unicode="&#x237;" horiz-adv-x="278" 
d="M-27 -73q26 -23 59 -23q27 0 42.5 17t15.5 50v529h128v-541q0 -78 -46 -123.5t-116 -45.5q-77 0 -120 36z" />
    <glyph glyph-name="circumflex" unicode="&#x2c6;" horiz-adv-x="465" 
d="M173 551h-113l121 149h102l121 -149h-112l-54 72h-12z" />
    <glyph glyph-name="caron" unicode="&#x2c7;" horiz-adv-x="465" 
d="M292 700h113l-121 -149h-102l-121 149h112l54 -72h12z" />
    <glyph glyph-name="breve" unicode="&#x2d8;" horiz-adv-x="405" 
d="M345 690q0 -52 -41 -87.5t-101 -35.5t-101.5 35.5t-41.5 87.5h92q0 -21 14 -36t38 -15t36.5 14.5t12.5 36.5h92z" />
    <glyph glyph-name="dotaccent" unicode="&#x2d9;" horiz-adv-x="285" 
d="M144 560q-34 0 -58.5 24.5t-24.5 56.5q0 35 24.5 58.5t58.5 23.5t57.5 -23.5t23.5 -58.5q0 -33 -24 -57t-57 -24z" />
    <glyph glyph-name="ring" unicode="&#x2da;" horiz-adv-x="322" 
d="M160 533q-41 0 -70.5 29t-29.5 70t29.5 70t70.5 29t71 -29.5t30 -69.5t-30 -69.5t-71 -29.5zM161 602q12 0 21 9t9 21t-9 21.5t-21 9.5t-21 -9.5t-9 -21.5t8.5 -21t21.5 -9z" />
    <glyph glyph-name="ogonek" unicode="&#x2db;" horiz-adv-x="302" 
d="M162 25l38 -25q-29 -7 -47 -24.5t-18 -38.5q0 -38 39.5 -46.5t66.5 11.5v-69q-18 -16 -64 -16q-49 0 -83 27t-34 75q0 40 27 63.5t75 42.5z" />
    <glyph glyph-name="tilde" unicode="&#x2dc;" horiz-adv-x="500" 
d="M440 646q-12 -37 -41.5 -68t-76.5 -31q-39 0 -78 25t-59 25q-35 0 -56 -45l-68 36q12 37 41 67.5t76 30.5q39 0 78.5 -24.5t59.5 -24.5q36 0 56 45z" />
    <glyph glyph-name="hungarumlaut" unicode="&#x2dd;" horiz-adv-x="494" 
d="M136 695h119l-104 -140h-91zM314 695h120l-106 -140h-90z" />
    <glyph glyph-name="uni1E02" unicode="&#x1e02;" horiz-adv-x="595" 
d="M293 764q-37 0 -64 26.5t-27 62.5q0 39 26.5 64.5t64.5 25.5q37 0 63 -25.5t26 -64.5q0 -36 -26.5 -62.5t-62.5 -26.5zM429 369q59 -17 97.5 -59.5t38.5 -115.5q0 -97 -67 -145.5t-165 -48.5h-273v700h250q96 0 158 -46t62 -131q0 -107 -101 -145v-9zM190 585v-166h112
q46 0 71 22.5t25 62.5q0 37 -26 59t-67 22h-115zM307 115q58 0 90 25.5t32 68.5q0 44 -31.5 72t-86.5 28h-121v-194h117z" />
    <glyph glyph-name="uni1E03" unicode="&#x1e03;" horiz-adv-x="586" 
d="M310 760q-34 0 -58.5 24.5t-24.5 56.5q0 35 24.5 58.5t58.5 23.5t57.5 -23.5t23.5 -58.5q0 -33 -24 -57t-57 -24zM318 511q99 0 167 -72t68 -190q0 -116 -66.5 -187t-162.5 -71q-90 0 -142 67h-13l-15 -58h-99v712h127v-263q42 62 136 62zM302 107q54 0 88.5 40t34.5 104
q0 63 -34.5 103t-88.5 40t-87 -40t-33 -103t33 -103.5t87 -40.5z" />
    <glyph glyph-name="uni1E0A" unicode="&#x1e0a;" horiz-adv-x="683" 
d="M325 764q-37 0 -64 26.5t-27 62.5q0 39 26.5 64.5t64.5 25.5q37 0 63 -25.5t26 -64.5q0 -36 -26.5 -62.5t-62.5 -26.5zM290 700q163 0 257.5 -92t94.5 -256q0 -167 -94.5 -259.5t-257.5 -92.5h-230v700h230zM291 127q97 0 155.5 61.5t58.5 167.5q0 101 -58 159t-156 58
h-93v-446h93z" />
    <glyph glyph-name="uni1E0B" unicode="&#x1e0b;" horiz-adv-x="586" 
d="M283 760q-34 0 -58.5 24.5t-24.5 56.5q0 35 24.5 58.5t58.5 23.5t57.5 -23.5t23.5 -58.5q0 -33 -24 -57t-57 -24zM404 712h127v-712h-99l-15 58h-13q-52 -67 -142 -67q-96 0 -162.5 71t-66.5 187q0 118 68 190t167 72q94 0 136 -62v263zM284 107q54 0 87 40.5t33 103.5
t-33 103t-87 40t-88.5 -40t-34.5 -103q0 -64 34.5 -104t88.5 -40z" />
    <glyph glyph-name="uni1E10" unicode="&#x1e10;" horiz-adv-x="683" 
d="M290 700q163 0 257.5 -92t94.5 -256q0 -167 -94.5 -259.5t-257.5 -92.5h-230v700h230zM291 127q97 0 155.5 61.5t58.5 167.5q0 101 -58 159t-156 58h-93v-446h93zM319 -49q38 0 61 -30t23 -77q0 -68 -37 -118t-87 -74l-29 34q66 54 69 107q-30 -5 -54 17t-24 61
q0 36 22.5 58t55.5 22z" />
    <glyph glyph-name="uni1E11" unicode="&#x1e11;" horiz-adv-x="586" 
d="M404 712h127v-712h-99l-15 58h-13q-52 -67 -142 -67q-96 0 -162.5 71t-66.5 187q0 118 68 190t167 72q94 0 136 -62v263zM284 107q54 0 87 40.5t33 103.5t-33 103t-87 40t-88.5 -40t-34.5 -103q0 -64 34.5 -104t88.5 -40zM296 -49q38 0 60 -29.5t22 -75.5
q0 -68 -36.5 -116.5t-85.5 -72.5l-28 33q65 55 68 106q-30 -5 -53.5 16t-23.5 60q0 36 22 57.5t55 21.5z" />
    <glyph glyph-name="uni1E1E" unicode="&#x1e1e;" horiz-adv-x="548" 
d="M292 764q-37 0 -64 26.5t-27 62.5q0 39 26.5 64.5t64.5 25.5q37 0 63 -25.5t26 -64.5q0 -36 -26.5 -62.5t-62.5 -26.5zM525 573h-330v-176h286v-121h-286v-276h-135v700h465v-127z" />
    <glyph glyph-name="uni1E1F" unicode="&#x1e1f;" horiz-adv-x="424" 
d="M251 760q-34 0 -58.5 24.5t-24.5 56.5q0 35 24.5 58.5t58.5 23.5t57.5 -23.5t23.5 -58.5q0 -33 -24 -57t-57 -24zM247 529v-29h132v-104h-132v-396h-128v396h-97v104h97v41q0 78 46 123.5t116 45.5q77 0 120 -36l-37 -101q-26 23 -59 23q-27 0 -42.5 -17t-15.5 -50z" />
    <glyph glyph-name="uni1E20" unicode="&#x1e20;" horiz-adv-x="736" 
d="M193 852h345v-92h-345v92zM358 379h316v-379h-92l-19 70h-11q-27 -30 -77 -55t-123 -25q-144 0 -227.5 96.5t-83.5 249.5q0 164 91.5 269t235.5 105q136 0 212.5 -64.5t87.5 -165.5h-140q-9 44 -50 74t-101 30q-91 0 -144 -68.5t-53 -174.5q0 -103 51.5 -165.5
t152.5 -62.5q92 0 157 65v94h-183v107z" />
    <glyph glyph-name="uni1E22" unicode="&#x1e22;" horiz-adv-x="675" 
d="M333 764q-37 0 -64 26.5t-27 62.5q0 39 26.5 64.5t64.5 25.5q37 0 63 -25.5t26 -64.5q0 -36 -26.5 -62.5t-62.5 -26.5zM478 700h136v-700h-136v294h-282v-294h-136v700h136v-284h282v284z" />
    <glyph glyph-name="uni1E23" unicode="&#x1e23;" horiz-adv-x="599" 
d="M302 760q-34 0 -58.5 24.5t-24.5 56.5q0 35 24.5 58.5t58.5 23.5t57.5 -23.5t23.5 -58.5q0 -33 -24 -57t-57 -24zM356 510q87 0 139.5 -55t52.5 -154v-301h-134v255q0 63 -30 97.5t-83 34.5q-46 0 -77 -32.5t-31 -95.5v-259h-138v710h138v-266h11q61 66 152 66z" />
    <glyph glyph-name="uni1E26" unicode="&#x1e26;" horiz-adv-x="675" 
d="M218 753q-32 0 -55 22.5t-23 54.5q0 33 23 55.5t55 22.5q31 0 54 -22.5t23 -55.5q0 -31 -23 -54t-54 -23zM451 753q-31 0 -54 23t-23 54q0 33 23 55.5t54 22.5q32 0 54.5 -22.5t22.5 -55.5q0 -32 -22.5 -54.5t-54.5 -22.5zM478 700h136v-700h-136v294h-282v-294h-136v700
h136v-284h282v284z" />
    <glyph glyph-name="uni1E27" unicode="&#x1e27;" horiz-adv-x="599" 
d="M205 744q-29 0 -50 21t-21 50t21 49t50 20t49 -20t20 -49t-20.5 -50t-48.5 -21zM401 744q-28 0 -49 21t-21 50t20.5 49t49.5 20t49.5 -20t20.5 -49t-20.5 -50t-49.5 -21zM356 510q87 0 139.5 -55t52.5 -154v-301h-134v255q0 63 -30 97.5t-83 34.5q-46 0 -77 -32.5
t-31 -95.5v-259h-138v710h138v-266h11q61 66 152 66z" />
    <glyph glyph-name="uni1E28" unicode="&#x1e28;" horiz-adv-x="675" 
d="M478 700h136v-700h-136v294h-282v-294h-24l-32 -44q39 7 69.5 -17.5t30.5 -66.5t-28 -65.5t-80 -23.5q-34 0 -61 15t-36 27t-15 23l52 31q20 -34 57 -34q39 0 39 32q0 30 -41 30q-18 0 -32 -10l-43 44l40 59h-32v700h136v-284h282v284z" />
    <glyph glyph-name="uni1E29" unicode="&#x1e29;" horiz-adv-x="599" 
d="M356 510q87 0 139.5 -55t52.5 -154v-301h-134v255q0 63 -30 97.5t-83 34.5q-46 0 -77 -32.5t-31 -95.5v-259h-28l-31 -43q37 7 67 -17t30 -64t-27.5 -63t-77.5 -23q-33 0 -59 14.5t-35.5 26.5t-13.5 22l50 30q20 -33 55 -33q38 0 38 31q0 13 -10.5 21t-29.5 8
q-17 0 -31 -10l-41 43l38 57h-32v710h138v-266h11q61 66 152 66z" />
    <glyph glyph-name="uni1E40" unicode="&#x1e40;" horiz-adv-x="868" 
d="M433 764q-37 0 -64 26.5t-27 62.5q0 39 26.5 64.5t64.5 25.5q37 0 63 -25.5t26 -64.5q0 -36 -26.5 -62.5t-62.5 -26.5zM807 700v-700h-130v482h-11l-166 -422h-133l-165 422h-11v-482h-131v700h178l191 -470h11l189 470h178z" />
    <glyph glyph-name="uni1E41" unicode="&#x1e41;" horiz-adv-x="855" 
d="M434 560q-34 0 -58.5 24.5t-24.5 56.5q0 35 24.5 58.5t58.5 23.5t57.5 -23.5t23.5 -58.5q0 -33 -24 -57t-57 -24zM626 510q82 0 130 -54.5t48 -163.5v-292h-135v286q0 50 -24 77t-62 27q-36 0 -61.5 -28t-25.5 -78v-284h-134v283q0 51 -24 79t-60 28q-35 0 -61.5 -27.5
t-26.5 -76.5v-286h-135v500h106l16 -60h11q19 30 54.5 50t82.5 20q50 0 87.5 -25.5t53.5 -60.5h11q46 86 149 86z" />
    <glyph glyph-name="uni1E44" unicode="&#x1e44;" horiz-adv-x="697" 
d="M348 764q-37 0 -64 26.5t-27 62.5q0 39 26.5 64.5t64.5 25.5q37 0 63 -25.5t26 -64.5q0 -36 -26.5 -62.5t-62.5 -26.5zM507 700h130v-700h-130l-305 455h-11v-455h-131v700h139l297 -452h11v452z" />
    <glyph glyph-name="uni1E45" unicode="&#x1e45;" horiz-adv-x="589" 
d="M299 560q-34 0 -58.5 24.5t-24.5 56.5q0 35 24.5 58.5t58.5 23.5t57.5 -23.5t23.5 -58.5q0 -33 -24 -57t-57 -24zM343 510q86 0 140.5 -59.5t54.5 -167.5v-283h-135v261q0 64 -29.5 97t-77.5 33q-44 0 -74.5 -32t-30.5 -95v-264h-136v500h106l17 -61h11q16 20 30 32.5
t47.5 25.5t76.5 13z" />
    <glyph glyph-name="uni1E56" unicode="&#x1e56;" horiz-adv-x="609" 
d="M294 764q-37 0 -64 26.5t-27 62.5q0 39 26.5 64.5t64.5 25.5q37 0 63 -25.5t26 -64.5q0 -36 -26.5 -62.5t-62.5 -26.5zM329 700q112 0 175.5 -62.5t63.5 -162.5q0 -107 -64 -167.5t-179 -60.5h-135v-247h-130v700h269zM315 368q57 0 87 28.5t30 78.5q0 46 -30 75t-83 29
h-129v-211h125z" />
    <glyph glyph-name="uni1E57" unicode="&#x1e57;" horiz-adv-x="585" 
d="M287 560q-34 0 -58.5 24.5t-24.5 56.5q0 35 24.5 58.5t58.5 23.5t57.5 -23.5t23.5 -58.5q0 -33 -24 -57t-57 -24zM324 509q96 0 162.5 -71t66.5 -187q0 -118 -68 -190t-167 -72q-94 0 -136 62v-251h-127v700h99l15 -58h13q52 67 142 67zM302 106q54 0 88.5 40t34.5 103
q0 64 -34.5 104t-88.5 40t-87 -40.5t-33 -103.5t33 -103t87 -40z" />
    <glyph glyph-name="uni1E58" unicode="&#x1e58;" horiz-adv-x="600" 
d="M287 764q-37 0 -64 26.5t-27 62.5q0 39 26.5 64.5t64.5 25.5q37 0 63 -25.5t26 -64.5q0 -36 -26.5 -62.5t-62.5 -26.5zM577 0h-144l-140 258h-103v-258h-130v700h260q105 0 169.5 -59.5t64.5 -159.5q0 -68 -35 -120.5t-96 -79.5zM190 576v-195h117q51 0 81 27.5t30 70.5
q0 45 -29.5 71t-81.5 26h-117z" />
    <glyph glyph-name="uni1E59" unicode="&#x1e59;" horiz-adv-x="405" 
d="M221 560q-34 0 -58.5 24.5t-24.5 56.5q0 35 24.5 58.5t58.5 23.5t57.5 -23.5t23.5 -58.5q0 -33 -24 -57t-57 -24zM345 510h36v-130q-27 6 -52 6q-60 0 -99.5 -41t-39.5 -125v-220h-135v500h106l18 -69h11q56 79 155 79z" />
    <glyph glyph-name="uni1E60" unicode="&#x1e60;" horiz-adv-x="586" 
d="M291 764q-37 0 -64 26.5t-27 62.5q0 39 26.5 64.5t64.5 25.5q37 0 63 -25.5t26 -64.5q0 -36 -26.5 -62.5t-62.5 -26.5zM545 185q0 -95 -67 -145t-177 -50q-122 0 -190.5 66t-69.5 172h134q1 -56 33 -89t96 -33q45 0 74 20.5t29 59.5t-31.5 64t-109.5 52q-97 34 -150.5 81
t-53.5 126q0 93 64 147t164 54q110 0 173.5 -61.5t64.5 -151.5h-124q-4 42 -32.5 69.5t-81.5 27.5q-41 0 -66.5 -20.5t-25.5 -54.5t29.5 -57t99.5 -50q110 -42 164 -92t54 -135z" />
    <glyph glyph-name="uni1E61" unicode="&#x1e61;" horiz-adv-x="479" 
d="M239 560q-34 0 -58.5 24.5t-24.5 56.5q0 35 24.5 58.5t58.5 23.5t57.5 -23.5t23.5 -58.5q0 -33 -24 -57t-57 -24zM447 138q0 -71 -55 -109.5t-143 -38.5q-96 0 -154 48t-63 131h126q2 -40 29.5 -59.5t63.5 -19.5q29 0 48.5 12.5t19.5 35.5q0 26 -24 41.5t-75 28.5
q-35 10 -59 19t-53 26t-44.5 44t-15.5 62q0 68 54.5 109.5t138.5 41.5q85 0 137.5 -44.5t57.5 -113.5h-121q-3 26 -25 42.5t-55 16.5q-25 0 -41.5 -12t-16.5 -33q0 -22 22 -36t77 -30q83 -24 127 -60.5t44 -101.5z" />
    <glyph glyph-name="uni1E7C" unicode="&#x1e7c;" horiz-adv-x="656" 
d="M528 857q-12 -39 -43 -71.5t-81 -32.5q-41 0 -82 26.5t-62 26.5q-37 0 -58 -47l-72 37q13 39 43.5 71t79.5 32q41 0 83 -25.5t62 -25.5q37 0 59 47zM499 700h144l-221 -700h-188l-221 700h145l166 -552h11z" />
    <glyph glyph-name="uni1E7D" unicode="&#x1e7d;" horiz-adv-x="567" 
d="M474 646q-12 -37 -41.5 -68t-76.5 -31q-39 0 -78 25t-59 25q-35 0 -56 -45l-68 36q12 37 41 67.5t76 30.5q39 0 78.5 -24.5t59.5 -24.5q36 0 56 45zM414 500h134l-173 -500h-183l-173 500h134l126 -384h11z" />
    <glyph glyph-name="Wgrave" unicode="&#x1e80;" horiz-adv-x="898" 
d="M433 901l69 -147h-95l-117 147h143zM755 700h129l-130 -700h-187l-113 460h-11l-112 -460h-187l-131 700h131l94 -526h11l116 476h168l116 -476h10z" />
    <glyph glyph-name="wgrave" unicode="&#x1e81;" horiz-adv-x="763" 
d="M362 695l66 -140h-91l-111 140h136zM624 500h121l-122 -500h-153l-83 330h-11l-83 -330h-153l-121 500h120l79 -361h10l83 329h142l84 -329h11z" />
    <glyph glyph-name="Wacute" unicode="&#x1e82;" horiz-adv-x="898" 
d="M463 901h143l-117 -147h-95zM755 700h129l-130 -700h-187l-113 460h-11l-112 -460h-187l-131 700h131l94 -526h11l116 476h168l116 -476h10z" />
    <glyph glyph-name="wacute" unicode="&#x1e83;" horiz-adv-x="763" 
d="M401 695h136l-111 -140h-91zM624 500h121l-122 -500h-153l-83 330h-11l-83 -330h-153l-121 500h120l79 -361h10l83 329h142l84 -329h11z" />
    <glyph glyph-name="Wdieresis" unicode="&#x1e84;" horiz-adv-x="898" 
d="M332 753q-32 0 -55 22.5t-23 54.5q0 33 23 55.5t55 22.5q31 0 54 -22.5t23 -55.5q0 -31 -23 -54t-54 -23zM565 753q-31 0 -54 23t-23 54q0 33 23 55.5t54 22.5q32 0 54.5 -22.5t22.5 -55.5q0 -32 -22.5 -54.5t-54.5 -22.5zM755 700h129l-130 -700h-187l-113 460h-11
l-112 -460h-187l-131 700h131l94 -526h11l116 476h168l116 -476h10z" />
    <glyph glyph-name="wdieresis" unicode="&#x1e85;" horiz-adv-x="763" 
d="M285 544q-29 0 -50 21t-21 50t21 49t50 20t49 -20t20 -49t-20.5 -50t-48.5 -21zM481 544q-28 0 -49 21t-21 50t20.5 49t49.5 20t49.5 -20t20.5 -49t-20.5 -50t-49.5 -21zM624 500h121l-122 -500h-153l-83 330h-11l-83 -330h-153l-121 500h120l79 -361h10l83 329h142
l84 -329h11z" />
    <glyph glyph-name="uni1E8C" unicode="&#x1e8c;" horiz-adv-x="647" 
d="M208 753q-32 0 -55 22.5t-23 54.5q0 33 23 55.5t55 22.5q31 0 54 -22.5t23 -55.5q0 -31 -23 -54t-54 -23zM441 753q-31 0 -54 23t-23 54q0 33 23 55.5t54 22.5q32 0 54.5 -22.5t22.5 -55.5q0 -32 -22.5 -54.5t-54.5 -22.5zM478 0l-146 246h-11l-146 -246h-162l220 361
l-208 339h159l136 -226h11l137 226h153l-208 -339l220 -361h-155z" />
    <glyph glyph-name="uni1E8D" unicode="&#x1e8d;" horiz-adv-x="541" 
d="M174 544q-29 0 -50 21t-21 50t21 49t50 20t49 -20t20 -49t-20.5 -50t-48.5 -21zM370 544q-28 0 -49 21t-21 50t20.5 49t49.5 20t49.5 -20t20.5 -49t-20.5 -50t-49.5 -21zM374 0l-97 163h-11l-100 -163h-147l159 257l-150 243h146l91 -148h11l90 148h147l-149 -243
l159 -257h-149z" />
    <glyph glyph-name="uni1E90" unicode="&#x1e90;" horiz-adv-x="599" 
d="M240 767h-115l123 151h104l123 -151h-114l-55 73h-12zM232 125h322v-125h-513v99l326 468v9h-308v124h486v-99l-313 -467v-9z" />
    <glyph glyph-name="uni1E97" unicode="&#x1e97;" horiz-adv-x="397" 
d="M94 670q-29 0 -50 21t-21 50t21 49t50 20t49 -20t20 -49t-20.5 -50t-48.5 -21zM290 670q-28 0 -49 21t-21 50t20.5 49t49.5 20t49.5 -20t20.5 -49t-20.5 -50t-49.5 -21zM370 17q-44 -27 -98 -27q-152 0 -152 160v246h-98v95h31q38 0 58.5 18.5t20.5 51.5v65h118v-126h124
v-104h-124v-234q0 -58 46 -58q22 0 47 14z" />
    <glyph glyph-name="uni1E98" unicode="&#x1e98;" horiz-adv-x="763" 
d="M381 533q-41 0 -70.5 29t-29.5 70t29.5 70t70.5 29t71 -29.5t30 -69.5t-30 -69.5t-71 -29.5zM382 602q12 0 21 9t9 21t-9 21.5t-21 9.5t-21 -9.5t-9 -21.5t8.5 -21t21.5 -9zM624 500h121l-122 -500h-153l-83 330h-11l-83 -330h-153l-121 500h120l79 -361h10l83 329h142
l84 -329h11z" />
    <glyph glyph-name="uni1E99" unicode="&#x1e99;" horiz-adv-x="579" 
d="M290 533q-41 0 -70.5 29t-29.5 70t29.5 70t70.5 29t71 -29.5t30 -69.5t-30 -69.5t-71 -29.5zM291 602q12 0 21 9t9 21t-9 21.5t-21 9.5t-21 -9.5t-9 -21.5t8.5 -21t21.5 -9zM427 500h134l-179 -540q-27 -82 -74 -126t-133 -44t-132 46l53 92q34 -29 72 -29
q28 0 51.5 20.5t33.5 51.5l10 29h-50l-194 500h140l138 -368h11z" />
    <glyph glyph-name="uni1E9E" unicode="&#x1e9e;" horiz-adv-x="1173" 
d="M545 185q0 -95 -67 -145t-177 -50q-122 0 -190.5 66t-69.5 172h134q1 -56 33 -89t96 -33q45 0 74 20.5t29 59.5t-31.5 64t-109.5 52q-97 34 -150.5 81t-53.5 126q0 93 64 147t164 54q110 0 173.5 -61.5t64.5 -151.5h-124q-4 42 -32.5 69.5t-81.5 27.5q-41 0 -66.5 -20.5
t-25.5 -54.5t29.5 -57t99.5 -50q110 -42 164 -92t54 -135zM1132 185q0 -95 -67 -145t-177 -50q-122 0 -190.5 66t-69.5 172h134q1 -56 33 -89t96 -33q45 0 74 20.5t29 59.5t-31.5 64t-109.5 52q-97 34 -150.5 81t-53.5 126q0 93 64 147t164 54q110 0 173.5 -61.5
t64.5 -151.5h-124q-4 42 -32.5 69.5t-81.5 27.5q-41 0 -66.5 -20.5t-25.5 -54.5t29.5 -57t99.5 -50q110 -42 164 -92t54 -135z" />
    <glyph glyph-name="uni1EA0" unicode="&#x1ea0;" horiz-adv-x="678" 
d="M664 0h-144l-49 154h-265l-49 -154h-144l237 700h178zM243 270h191l-90 283h-11zM340 -58q37 0 63 -25.5t26 -64.5q0 -36 -26.5 -62.5t-62.5 -26.5q-37 0 -64 26.5t-27 62.5q0 39 26.5 64.5t64.5 25.5z" />
    <glyph glyph-name="uni1EA1" unicode="&#x1ea1;" 
d="M474 150q0 -24 9.5 -34t31.5 -10v-106h-23q-86 0 -109 65q-62 -75 -174 -75q-80 0 -128.5 38t-48.5 107q0 150 224 167l93 7v10q0 43 -22.5 68t-60.5 25q-41 0 -62.5 -24.5t-25.5 -55.5h-123q6 79 62 128.5t148 49.5q93 0 151 -53t58 -153v-154zM228 92q48 0 84.5 32
t36.5 86v10l-63 -5q-123 -11 -123 -72q0 -24 18 -37.5t47 -13.5zM278 -60q34 0 57.5 -23.5t23.5 -58.5q0 -33 -24 -57t-57 -24q-34 0 -58.5 24.5t-24.5 56.5q0 35 24.5 58.5t58.5 23.5z" />
    <glyph glyph-name="uni1EB8" unicode="&#x1eb8;" horiz-adv-x="556" 
d="M191 123h342v-123h-473v700h463v-123h-332v-164h286v-117h-286v-173zM306 -237q-37 0 -64 26.5t-27 62.5q0 39 26.5 64.5t64.5 25.5q37 0 63 -25.5t26 -64.5q0 -36 -26.5 -62.5t-62.5 -26.5z" />
    <glyph glyph-name="uni1EB9" unicode="&#x1eb9;" horiz-adv-x="557" 
d="M400 158h123q-17 -79 -82 -123.5t-153 -44.5q-116 0 -186 72t-70 189q0 114 71 186.5t176 72.5q52 0 96.5 -16.5t80 -50.5t53 -92.5t11.5 -135.5h-363q17 -119 133 -119q37 0 67 16.5t43 45.5zM285 408q-47 0 -79 -26t-44 -73h238q-2 40 -33.5 69.5t-81.5 29.5zM282 -60
q34 0 57.5 -23.5t23.5 -58.5q0 -33 -24 -57t-57 -24q-34 0 -58.5 24.5t-24.5 56.5q0 35 24.5 58.5t58.5 23.5z" />
    <glyph glyph-name="uni1EBC" unicode="&#x1ebc;" horiz-adv-x="556" 
d="M491 857q-12 -39 -43 -71.5t-81 -32.5q-41 0 -82 26.5t-62 26.5q-37 0 -58 -47l-72 37q13 39 43.5 71t79.5 32q42 0 83 -25.5t62 -25.5q37 0 59 47zM191 123h342v-123h-473v700h463v-123h-332v-164h286v-117h-286v-173z" />
    <glyph glyph-name="uni1EBD" unicode="&#x1ebd;" horiz-adv-x="557" 
d="M216 597q-35 0 -56 -45l-68 36q12 37 41 67.5t76 30.5q39 0 78.5 -24.5t59.5 -24.5q36 0 56 45l68 -36q-12 -37 -41.5 -68t-76.5 -31q-39 0 -78 25t-59 25zM400 158h123q-17 -79 -82 -123.5t-153 -44.5q-116 0 -186 72t-70 189q0 114 71 186.5t176 72.5q52 0 96.5 -16.5
t80 -50.5t53 -92.5t11.5 -135.5h-363q17 -119 133 -119q37 0 67 16.5t43 45.5zM285 408q-47 0 -79 -26t-44 -73h238q-2 40 -33.5 69.5t-81.5 29.5z" />
    <glyph glyph-name="uni1ECA" unicode="&#x1eca;" horiz-adv-x="262" 
d="M201 700v-700h-141v700h141zM132 -237q-37 0 -64 26.5t-27 62.5q0 39 26.5 64.5t64.5 25.5q37 0 63 -25.5t26 -64.5q0 -36 -26.5 -62.5t-62.5 -26.5z" />
    <glyph glyph-name="uni1ECB" unicode="&#x1ecb;" horiz-adv-x="248" 
d="M125 560q-34 0 -58.5 24.5t-24.5 56.5q0 35 24.5 58.5t58.5 23.5t57.5 -23.5t23.5 -58.5q0 -33 -24 -57t-57 -24zM189 500v-500h-130v500h130zM126 -223q-34 0 -58.5 24.5t-24.5 56.5q0 35 24.5 58.5t58.5 23.5t57.5 -23.5t23.5 -58.5q0 -33 -24 -57t-57 -24z" />
    <glyph glyph-name="uni1ECC" unicode="&#x1ecc;" horiz-adv-x="790" 
d="M396 -10q-153 0 -254 103t-101 257t100.5 257t253.5 103q152 0 253 -103t101 -257t-101 -257t-252 -103zM396 121q91 0 151 65.5t60 163.5t-60.5 163.5t-151.5 65.5t-152 -65.5t-61 -163.5t61 -163.5t153 -65.5zM396 -237q-37 0 -64 26.5t-27 62.5q0 39 26.5 64.5
t64.5 25.5q37 0 63 -25.5t26 -64.5q0 -36 -26.5 -62.5t-62.5 -26.5z" />
    <glyph glyph-name="uni1ECD" unicode="&#x1ecd;" horiz-adv-x="592" 
d="M297 -10q-112 0 -188.5 73t-76.5 187t76 187t188 73t187.5 -72.5t75.5 -187.5q0 -114 -75 -187t-187 -73zM297 105q58 0 95 41.5t37 103.5t-37 103.5t-96 41.5t-96.5 -41.5t-37.5 -103.5t38 -103.5t97 -41.5zM297 -223q-34 0 -58.5 24.5t-24.5 56.5q0 35 24.5 58.5
t58.5 23.5t57.5 -23.5t23.5 -58.5q0 -33 -24 -57t-57 -24z" />
    <glyph glyph-name="uni1EE4" unicode="&#x1ee4;" horiz-adv-x="694" 
d="M633 700v-410q0 -149 -79.5 -224.5t-205.5 -75.5q-127 0 -207.5 75.5t-80.5 224.5v410h142v-415q0 -77 39.5 -121.5t107.5 -44.5q67 0 105 44t38 122v415h141zM348 -237q-37 0 -64 26.5t-27 62.5q0 39 26.5 64.5t64.5 25.5q37 0 63 -25.5t26 -64.5q0 -36 -26.5 -62.5
t-62.5 -26.5z" />
    <glyph glyph-name="uni1EE5" unicode="&#x1ee5;" horiz-adv-x="589" 
d="M248 -10q-87 0 -140.5 59t-53.5 168v283h135v-261q0 -64 29 -97t77 -33q44 0 73.5 31.5t29.5 95.5v264h135v-500h-105l-17 61h-11q-16 -20 -29.5 -32.5t-46.5 -25.5t-76 -13zM293 -223q-34 0 -58.5 24.5t-24.5 56.5q0 35 24.5 58.5t58.5 23.5t57.5 -23.5t23.5 -58.5
q0 -33 -24 -57t-57 -24z" />
    <glyph glyph-name="Ygrave" unicode="&#x1ef2;" horiz-adv-x="656" 
d="M313 901l69 -147h-95l-117 147h143zM483 700h159l-243 -392v-308h-142v308l-244 392h159l150 -245h11z" />
    <glyph glyph-name="ygrave" unicode="&#x1ef3;" horiz-adv-x="579" 
d="M271 695l66 -140h-91l-111 140h136zM427 500h134l-179 -540q-27 -82 -74 -126t-133 -44t-132 46l53 92q34 -29 72 -29q28 0 51.5 20.5t33.5 51.5l10 29h-50l-194 500h140l138 -368h11z" />
    <glyph glyph-name="uni1EF8" unicode="&#x1ef8;" horiz-adv-x="656" 
d="M527 857q-12 -39 -43 -71.5t-81 -32.5q-41 0 -82 26.5t-62 26.5q-37 0 -58 -47l-72 37q13 39 43.5 71t79.5 32q42 0 83 -25.5t62 -25.5q37 0 59 47zM483 700h159l-243 -392v-308h-142v308l-244 392h159l150 -245h11z" />
    <glyph glyph-name="uni1EF9" unicode="&#x1ef9;" horiz-adv-x="579" 
d="M481 646q-12 -37 -41.5 -68t-76.5 -31q-39 0 -78 25t-59 25q-35 0 -56 -45l-68 36q12 37 41 67.5t76 30.5q39 0 78.5 -24.5t59.5 -24.5q36 0 56 45zM427 500h134l-179 -540q-27 -82 -74 -126t-133 -44t-132 46l53 92q34 -29 72 -29q28 0 51.5 20.5t33.5 51.5l10 29h-50
l-194 500h140l138 -368h11z" />
    <glyph glyph-name="uni200B" unicode="&#x200b;" horiz-adv-x="0" 
 />
    <glyph glyph-name="endash" unicode="&#x2013;" horiz-adv-x="480" 
d="M22 365h435v-108h-435v108z" />
    <glyph glyph-name="emdash" unicode="&#x2014;" horiz-adv-x="805" 
d="M782 365v-108h-760v108h760z" />
    <glyph glyph-name="quoteleft" unicode="&#x2018;" horiz-adv-x="211" 
d="M107 485q-35 0 -55 27.5t-20 71.5q0 64 33.5 110.5t78.5 69.5l26 -32q-60 -51 -63 -100q27 4 49 -16t22 -56q0 -34 -20 -54.5t-51 -20.5z" />
    <glyph glyph-name="quoteright" unicode="&#x2019;" horiz-adv-x="211" 
d="M104 756q35 0 55 -27.5t20 -71.5q0 -64 -33.5 -110.5t-78.5 -69.5l-26 32q60 51 63 100q-27 -4 -49 16t-22 56q0 34 20 54.5t51 20.5z" />
    <glyph glyph-name="quotesinglbase" unicode="&#x201a;" horiz-adv-x="249" 
d="M123 142q35 0 55 -27.5t20 -71.5q0 -64 -33.5 -110.5t-78.5 -69.5l-26 32q60 51 63 100q-27 -4 -49 16t-22 56q0 34 20 54.5t51 20.5z" />
    <glyph glyph-name="quotedblleft" unicode="&#x201c;" horiz-adv-x="388" 
d="M107 485q-35 0 -55 27.5t-20 71.5q0 64 33.5 110.5t78.5 69.5l26 -32q-60 -51 -63 -100q27 4 49 -16t22 -56q0 -34 -20 -54.5t-51 -20.5zM284 485q-35 0 -55 27.5t-20 71.5q0 64 33.5 110.5t78.5 69.5l26 -32q-60 -51 -63 -100q27 4 49 -16t22 -56q0 -34 -20 -54.5
t-51 -20.5z" />
    <glyph glyph-name="quotedblright" unicode="&#x201d;" horiz-adv-x="389" 
d="M104 756q35 0 55 -27.5t20 -71.5q0 -64 -33.5 -110.5t-78.5 -69.5l-26 32q60 51 63 100q-27 -4 -49 16t-22 56q0 34 20 54.5t51 20.5zM281 756q35 0 55 -27.5t20 -71.5q0 -64 -33.5 -110.5t-78.5 -69.5l-26 32q60 51 63 100q-27 -4 -49 16t-22 56q0 34 20 54.5t51 20.5z
" />
    <glyph glyph-name="quotedblbase" unicode="&#x201e;" horiz-adv-x="426" 
d="M123 142q35 0 55 -27.5t20 -71.5q0 -64 -33.5 -110.5t-78.5 -69.5l-26 32q60 51 63 100q-27 -4 -49 16t-22 56q0 34 20 54.5t51 20.5zM300 142q35 0 55 -27.5t20 -71.5q0 -64 -33.5 -110.5t-78.5 -69.5l-26 32q60 51 63 100q-27 -4 -49 16t-22 56q0 34 20 54.5t51 20.5z
" />
    <glyph glyph-name="dagger" unicode="&#x2020;" horiz-adv-x="483" 
d="M460 500v-111h-161v-529h-116v529h-161v111h161v200h116v-200h161z" />
    <glyph glyph-name="daggerdbl" unicode="&#x2021;" horiz-adv-x="483" 
d="M460 389h-161v-218h161v-111h-161v-200h-116v200h-161v111h161v218h-161v111h161v200h116v-200h161v-111z" />
    <glyph glyph-name="bullet" unicode="&#x2022;" horiz-adv-x="200" 
d="M101 233q-32 0 -55.5 23t-23.5 54q0 32 23.5 55t55.5 23q31 0 53.5 -23t22.5 -55q0 -31 -22.5 -54t-53.5 -23z" />
    <glyph glyph-name="ellipsis" unicode="&#x2026;" horiz-adv-x="727" 
d="M130 -6q-32 0 -55.5 23t-23.5 54q0 32 23.5 55t55.5 23q31 0 53.5 -23t22.5 -55q0 -31 -22.5 -54t-53.5 -23zM363 -6q-32 0 -55.5 23t-23.5 54q0 32 23.5 55t55.5 23q31 0 53.5 -23t22.5 -55q0 -31 -22.5 -54t-53.5 -23zM600 -6q-32 0 -55.5 23t-23.5 54q0 32 23.5 55
t55.5 23q31 0 53.5 -23t22.5 -55q0 -31 -22.5 -54t-53.5 -23z" />
    <glyph glyph-name="perthousand" unicode="&#x2030;" horiz-adv-x="1104" 
d="M191 350q-61 0 -105.5 44t-44.5 106t44.5 106t105.5 44t105.5 -44.5t44.5 -105.5t-44.5 -105.5t-105.5 -44.5zM648 640l-411 -640h-129l411 640h129zM191 448q24 0 38.5 14.5t14.5 37.5t-14.5 37.5t-38.5 14.5q-23 0 -37.5 -15t-14.5 -37t14.5 -37t37.5 -15zM571 -10
q-61 0 -105.5 44t-44.5 106t44.5 106t105.5 44t105.5 -44.5t44.5 -105.5t-44.5 -105.5t-105.5 -44.5zM922 -10q-62 0 -106 44t-44 106t44 106t106 44q61 0 105.5 -44.5t44.5 -105.5t-44.5 -105.5t-105.5 -44.5zM571 88q24 0 38.5 14.5t14.5 37.5t-14.5 37.5t-38.5 14.5
q-23 0 -37.5 -15t-14.5 -37t14.5 -37t37.5 -15zM922 88q24 0 38.5 14.5t14.5 37.5t-14.5 37.5t-38.5 14.5q-22 0 -37 -15t-15 -37t15 -37t37 -15z" />
    <glyph glyph-name="guilsinglleft" unicode="&#x2039;" horiz-adv-x="320" 
d="M144 96l-131 202l131 202h144l-133 -202l133 -202h-144z" />
    <glyph glyph-name="guilsinglright" unicode="&#x203a;" horiz-adv-x="320" 
d="M176 96h-144l133 202l-133 202h144l131 -202z" />
    <glyph glyph-name="uni2042" unicode="&#x2042;" horiz-adv-x="804" 
d="M520 423l-85 60l9 -103h-84l9 102l-84 -59l-43 74l94 43l-94 43l43 74l84 -60l-9 103h84l-9 -104l85 61l42 -74l-94 -43l94 -43zM310 277l42 -74l-94 -43l94 -43l-42 -74l-85 60l9 -103h-84l9 102l-84 -59l-43 74l94 43l-94 43l43 74l84 -60l-9 103h84l-9 -104zM772 203
l-94 -43l94 -43l-42 -74l-85 60l9 -103h-84l9 102l-84 -59l-43 74l94 43l-94 43l43 74l84 -60l-9 103h84l-9 -104l85 61z" />
    <glyph glyph-name="fraction" unicode="&#x2044;" horiz-adv-x="298" 
d="M448 640l-498 -640h-100l498 640h100z" />
    <glyph glyph-name="uni2051" unicode="&#x2051;" horiz-adv-x="384" 
d="M352 583l-94 -43l94 -43l-42 -74l-85 60l9 -103h-84l9 102l-84 -59l-43 74l94 43l-94 43l43 74l84 -60l-9 103h84l-9 -104l85 61zM310 277l42 -74l-94 -43l94 -43l-42 -74l-85 60l9 -103h-84l9 102l-84 -59l-43 74l94 43l-94 43l43 74l84 -60l-9 103h84l-9 -104z" />
    <glyph glyph-name="uni2070" unicode="&#x2070;" horiz-adv-x="372" 
d="M187 336q-69 0 -112.5 52.5t-43.5 143.5t43.5 144t111.5 53t111.5 -53.5t43.5 -144.5q0 -90 -43 -142.5t-111 -52.5zM187 420q33 0 50.5 30t17.5 81q0 50 -17.5 81t-51.5 31t-51 -30.5t-17 -81.5t17 -81t52 -30z" />
    <glyph glyph-name="uni2074" unicode="&#x2074;" horiz-adv-x="374" 
d="M353 489v-68h-67v-81h-75v81h-185v43l152 261h108v-236h67zM118 489h93v145h-7z" />
    <glyph glyph-name="uni2075" unicode="&#x2075;" horiz-adv-x="352" 
d="M188 597q62 0 97.5 -37.5t35.5 -94.5q0 -59 -40.5 -94.5t-106.5 -35.5q-69 0 -106 37t-37 88h80q2 -25 20.5 -41t44.5 -16q29 0 46.5 18t17.5 45q0 28 -17 48t-48 20q-37 0 -60 -34l-75 21l20 204h242v-71h-173l-8 -75q22 18 67 18z" />
    <glyph glyph-name="uni2076" unicode="&#x2076;" horiz-adv-x="356" 
d="M199 590q58 0 92 -35.5t34 -89.5q0 -59 -41 -94.5t-108 -35.5q-64 0 -104.5 36t-40.5 102q0 53 53 130l84 122h99l-112 -144q16 9 44 9zM180 402q32 0 50 17.5t18 43.5q0 27 -19 44.5t-51 17.5q-31 0 -50 -17.5t-19 -44.5q0 -25 19 -43t52 -18z" />
    <glyph glyph-name="uni2077" unicode="&#x2077;" horiz-adv-x="324" 
d="M26 725h277v-57q-62 -55 -102 -139t-42 -189h-83q2 108 40 193.5t78 121.5h-168v70z" />
    <glyph glyph-name="uni2078" unicode="&#x2078;" horiz-adv-x="382" 
d="M273 547q34 -9 56 -35.5t22 -60.5q0 -55 -44 -85.5t-117 -30.5t-116 30.5t-43 85.5q0 36 23.5 61.5t55.5 34.5v6q-55 23 -55 73q0 45 37.5 74.5t99.5 29.5t99.5 -28t37.5 -73q0 -25 -16 -45.5t-40 -30.5v-6zM191 669q-27 0 -44 -12.5t-17 -33.5q0 -22 18 -34.5t42 -12.5
q25 0 43.5 12.5t18.5 34.5q0 21 -17 33.5t-44 12.5zM191 398q35 0 54 14.5t19 39.5q0 24 -19.5 41t-54.5 17q-34 0 -52.5 -17t-18.5 -42q0 -23 18.5 -38t53.5 -15z" />
    <glyph glyph-name="uni2079" unicode="&#x2079;" horiz-adv-x="356" 
d="M157 475q-58 0 -92 35.5t-34 89.5q0 59 41 94.5t108 35.5q64 0 104.5 -36t40.5 -102q0 -53 -53 -130l-84 -122h-99l112 144q-16 -9 -44 -9zM176 663q-32 0 -50 -17.5t-18 -43.5q0 -27 19 -44.5t51 -17.5q31 0 50 17.5t19 44.5q0 25 -19 43t-52 18z" />
    <glyph glyph-name="uni2080" unicode="&#x2080;" horiz-adv-x="372" 
d="M187 -104q-69 0 -112.5 52.5t-43.5 143.5t43.5 144t111.5 53t111.5 -53.5t43.5 -144.5q0 -90 -43 -142.5t-111 -52.5zM187 -20q33 0 50.5 30t17.5 81q0 50 -17.5 81t-51.5 31t-51 -30.5t-17 -81.5t17 -81t52 -30z" />
    <glyph glyph-name="uni2081" unicode="&#x2081;" horiz-adv-x="257" 
d="M119 -100v240h-93v74h54q43 0 43 44v27h83v-385h-87z" />
    <glyph glyph-name="uni2082" unicode="&#x2082;" horiz-adv-x="338" 
d="M212 56q-85 -48 -86 -83h178v-73h-273v28q0 103 95 162q9 6 29.5 17t28 16t18.5 13.5t14.5 16.5t3.5 18q0 19 -12.5 31.5t-34.5 12.5q-26 0 -40.5 -16.5t-14.5 -41.5h-86q0 51 37.5 92t109.5 41q53 0 90.5 -30.5t37.5 -80.5q0 -31 -17 -57.5t-33.5 -38t-44.5 -27.5z" />
    <glyph glyph-name="uni2083" unicode="&#x2083;" horiz-adv-x="346" 
d="M245 102q32 -9 51 -34t19 -57q0 -52 -39 -84t-110 -32t-106.5 36.5t-38.5 94.5h80q7 -62 68 -62q29 0 46 14t17 37q0 26 -20.5 40.5t-56.5 14.5h-16v67h21q28 0 44 11t16 30q0 20 -13.5 31t-35.5 11q-46 0 -53 -44h-81q0 50 38 82t97 32q56 0 93 -28t37 -71
q0 -53 -57 -82v-7z" />
    <glyph glyph-name="uni2084" unicode="&#x2084;" horiz-adv-x="374" 
d="M353 49v-68h-67v-81h-75v81h-185v43l152 261h108v-236h67zM118 49h93v145h-7z" />
    <glyph glyph-name="uni2085" unicode="&#x2085;" horiz-adv-x="352" 
d="M188 157q62 0 97.5 -37.5t35.5 -94.5q0 -59 -40.5 -94.5t-106.5 -35.5q-69 0 -106 37t-37 88h80q2 -25 20.5 -41t44.5 -16q29 0 46.5 18t17.5 45q0 28 -17 48t-48 20q-37 0 -60 -34l-75 21l20 204h242v-71h-173l-8 -75q22 18 67 18z" />
    <glyph glyph-name="uni2086" unicode="&#x2086;" horiz-adv-x="356" 
d="M199 150q58 0 92 -35.5t34 -89.5q0 -59 -41 -94.5t-108 -35.5q-64 0 -104.5 36t-40.5 102q0 53 53 130l84 122h99l-112 -144q16 9 44 9zM180 -38q32 0 50 17.5t18 43.5q0 27 -19 44.5t-51 17.5q-31 0 -50 -17.5t-19 -44.5q0 -25 19 -43t52 -18z" />
    <glyph glyph-name="uni2087" unicode="&#x2087;" horiz-adv-x="324" 
d="M26 285h277v-57q-62 -55 -102 -139t-42 -189h-83q2 108 40 193.5t78 121.5h-168v70z" />
    <glyph glyph-name="uni2088" unicode="&#x2088;" horiz-adv-x="382" 
d="M273 107q34 -9 56 -35.5t22 -60.5q0 -55 -44 -85.5t-117 -30.5t-116 30.5t-43 85.5q0 36 23.5 61.5t55.5 34.5v6q-55 23 -55 73q0 45 37.5 74.5t99.5 29.5t99.5 -28t37.5 -73q0 -25 -16 -45.5t-40 -30.5v-6zM191 229q-27 0 -44 -12.5t-17 -33.5q0 -22 18 -34.5t42 -12.5
q25 0 43.5 12.5t18.5 34.5q0 21 -17 33.5t-44 12.5zM191 -42q35 0 54 14.5t19 39.5q0 24 -19.5 41t-54.5 17q-34 0 -52.5 -17t-18.5 -42q0 -24 18.5 -38.5t53.5 -14.5z" />
    <glyph glyph-name="uni2089" unicode="&#x2089;" horiz-adv-x="356" 
d="M157 35q-58 0 -92 35.5t-34 89.5q0 59 41 94.5t108 35.5q64 0 104.5 -36t40.5 -102q0 -53 -53 -130l-84 -122h-99l112 144q-16 -9 -44 -9zM176 223q-32 0 -50 -17.5t-18 -43.5q0 -27 19 -44.5t51 -17.5q31 0 50 17.5t19 44.5q0 25 -19 43t-52 18z" />
    <glyph glyph-name="Euro" unicode="&#x20ac;" horiz-adv-x="647" 
d="M572 152l39 -97q-77 -65 -196 -65q-108 0 -185 56.5t-105 159.5h-79v85h66q-1 8 -1 25q0 22 1 33h-66v86h81q29 100 104.5 157.5t185.5 57.5q118 0 193 -73l-53 -94q-52 55 -146 55q-115 0 -156 -103h265l-26 -86h-258q-1 -9 -1 -28q0 -20 1 -30h230l-25 -85h-185
q45 -103 162 -103q93 0 154 49z" />
    <glyph glyph-name="uni2113" unicode="&#x2113;" horiz-adv-x="451" 
d="M215 210q0 -54 20.5 -83.5t75.5 -29.5q52 0 87 19v-105q-39 -21 -105 -21q-87 0 -135.5 49t-48.5 147v42q-55 -10 -87 -13v97q42 8 87 18v150q0 80 42.5 125t110.5 45q72 0 114.5 -40.5t42.5 -112.5q0 -165 -204 -240v-47zM215 470v-105q102 47 102 122q0 30 -14 46.5
t-37 16.5q-51 0 -51 -80z" />
    <glyph glyph-name="trademark" unicode="&#x2122;" horiz-adv-x="799" 
d="M22 624v76h284v-76h-98v-274h-88v274h-98zM626 700h113v-350h-82v209h-6l-64 -169h-78l-66 171h-6v-211h-81v350h112l76 -204h6z" />
    <glyph glyph-name="uni2153" unicode="&#x2153;" horiz-adv-x="805" 
d="M119 255v240h-93v74h54q43 0 43 44v27h83v-385h-87zM674 640l-498 -640h-100l498 640h100zM704 202q32 -9 51 -34t19 -57q0 -52 -39 -84t-110 -32t-106.5 36.5t-38.5 94.5h80q7 -62 68 -62q29 0 46 14t17 37q0 26 -20.5 40.5t-56.5 14.5h-16v67h21q28 0 44 11t16 30
q0 20 -13.5 31t-35.5 11q-46 0 -53 -44h-81q0 50 38 82t97 32q56 0 93 -28t37 -71q0 -53 -57 -82v-7z" />
    <glyph glyph-name="uni2154" unicode="&#x2154;" horiz-adv-x="898" 
d="M212 411q-85 -48 -86 -83h178v-73h-273v28q0 103 95 162q9 6 29.5 17t28 16t18.5 13.5t14.5 16.5t3.5 18q0 19 -12.5 31.5t-34.5 12.5q-26 0 -40.5 -16.5t-14.5 -41.5h-86q0 51 37.5 92t109.5 41q53 0 90.5 -30.5t37.5 -80.5q0 -31 -17 -57.5t-33.5 -38t-44.5 -27.5z
M767 640l-498 -640h-100l498 640h100zM797 202q32 -9 51 -34t19 -57q0 -52 -39 -84t-110 -32t-106.5 36.5t-38.5 94.5h80q7 -62 68 -62q29 0 46 14t17 37q0 26 -20.5 40.5t-56.5 14.5h-16v67h21q28 0 44 11t16 30q0 20 -13.5 31t-35.5 11q-46 0 -53 -44h-81q0 50 38 82
t97 32q56 0 93 -28t37 -71q0 -53 -57 -82v-7z" />
    <glyph glyph-name="arrowup" unicode="&#x2191;" horiz-adv-x="701" 
d="M669 437l-80 -80l-181 184v-544h-115v543l-181 -183l-80 80l312 300h12z" />
    <glyph glyph-name="arrowdown" unicode="&#x2193;" horiz-adv-x="701" 
d="M589 340l80 -80l-312 -300h-12l-313 300l80 80l181 -184v544h115v-543z" />
    <glyph glyph-name="arrowboth" unicode="&#x2194;" horiz-adv-x="983" 
d="M669 627l300 -313v-12l-300 -312l-80 80l183 181h-562l183 -181l-80 -80l-300 312v12l300 313l80 -80l-184 -181h564l-184 181z" />
    <glyph glyph-name="arrowupdn" unicode="&#x2195;" horiz-adv-x="701" 
d="M408 60l181 184l80 -80l-313 -300h-12l-312 300l80 80l181 -183v559l-181 -183l-80 80l312 300h12l313 -300l-80 -80l-181 184v-561z" />
    <glyph glyph-name="uni2196" unicode="&#x2196;" horiz-adv-x="616" 
d="M603 81l-83 -82l-377 378v-261h-111v443l12 10h444v-110h-264z" />
    <glyph glyph-name="uni2197" unicode="&#x2197;" horiz-adv-x="616" 
d="M572 569l12 -10v-443h-111v261l-377 -378l-83 82l379 378h-264v110h444z" />
    <glyph glyph-name="uni2198" unicode="&#x2198;" horiz-adv-x="616" 
d="M474 531h110v-444l-10 -12h-443v111h261l-378 377l82 83l378 -379v264z" />
    <glyph glyph-name="uni2199" unicode="&#x2199;" horiz-adv-x="616" 
d="M602 563l-378 -377h261v-111h-443l-10 12v444h110v-264l378 379z" />
    <glyph glyph-name="partialdiff" unicode="&#x2202;" horiz-adv-x="588" 
d="M547 331q0 -179 -69.5 -260t-189.5 -81q-104 0 -175.5 68t-71.5 172q0 99 63.5 164.5t163.5 65.5q67 0 111.5 -26.5t60.5 -63.5q-18 228 -153 228q-46 0 -74 -25t-36 -59h-117q8 79 69 137.5t154 58.5q128 0 196 -97t68 -282zM289 98q56 0 92.5 37.5t36.5 93.5
q0 55 -37 89t-94 34q-56 0 -91.5 -35t-35.5 -90q0 -56 36.5 -92.5t92.5 -36.5z" />
    <glyph glyph-name="emptyset" unicode="&#x2205;" horiz-adv-x="763" 
d="M717 580l-67 -66q62 -86 62 -194q0 -137 -96.5 -233.5t-233.5 -96.5q-111 0 -200 68l-70 -68l-66 70l69 68q-62 86 -62 192q0 137 96 233.5t233 96.5q112 0 201 -67l69 67zM163 320q0 -65 32 -115l308 300q-54 37 -122 37q-89 0 -153.5 -65.5t-64.5 -156.5zM601 320
q0 63 -32 116l-309 -301q56 -37 121 -37q90 0 155 65.5t65 156.5z" />
    <glyph glyph-name="product" unicode="&#x220f;" horiz-adv-x="637" 
d="M60 700h517v-700h-106v601h-303v-601h-108v700z" />
    <glyph glyph-name="summation" unicode="&#x2211;" horiz-adv-x="498" 
d="M22 612v88h453v-96h-305l245 -228v-52l-245 -228h305v-96h-453v88l273 257v10z" />
    <glyph glyph-name="minus" unicode="&#x2212;" horiz-adv-x="553" 
d="M69 334h414v-108h-414v108z" />
    <glyph glyph-name="radical" unicode="&#x221a;" horiz-adv-x="653" 
d="M425 700h204v-110h-117l-192 -590h-151l-150 399h125l96 -268h11z" />
    <glyph glyph-name="infinity" unicode="&#x221e;" horiz-adv-x="777" 
d="M568 510q74 0 125.5 -48.5t51.5 -125.5t-51.5 -125.5t-125.5 -48.5q-108 0 -175 96h-8q-68 -96 -175 -96q-74 0 -126 48.5t-52 125.5t52 125.5t126 48.5q107 0 175 -96h8q67 96 175 96zM223 264q67 0 110 72q-43 72 -110 72q-33 0 -56.5 -20.5t-23.5 -51.5t23.5 -51.5
t56.5 -20.5zM554 264q33 0 56.5 20.5t23.5 51.5t-23.5 51.5t-56.5 20.5q-67 0 -110 -72q43 -72 110 -72z" />
    <glyph glyph-name="integral" unicode="&#x222b;" horiz-adv-x="566" 
d="M438 710q72 0 114 -38l-43 -86q-29 22 -57 22q-52 0 -63 -62l-102 -613q-11 -68 -53 -105.5t-107 -37.5q-70 0 -114 38l44 86q27 -22 56 -22q53 0 63 62l102 613q11 68 53 105.5t107 37.5z" />
    <glyph glyph-name="approxequal" unicode="&#x2248;" horiz-adv-x="634" 
d="M573 437q-6 -21 -15 -39.5t-27.5 -44.5t-49 -41.5t-69.5 -15.5q-33 0 -60.5 11.5t-44.5 25t-40.5 25t-48.5 11.5q-51 0 -79 -63l-78 28q45 141 162 141q51 0 104 -36.5t89 -36.5q48 0 80 63zM573 225q-6 -21 -15 -39.5t-27.5 -44.5t-49 -41.5t-69.5 -15.5
q-33 0 -60.5 11.5t-44.5 25t-40.5 25t-48.5 11.5q-51 0 -79 -63l-78 28q45 141 162 141q51 0 104 -36.5t89 -36.5q48 0 80 63z" />
    <glyph glyph-name="notequal" unicode="&#x2260;" horiz-adv-x="552" 
d="M506 340h-146l-72 -120h218v-110h-284l-63 -104l-71 43l37 61h-79v110h145l72 120h-217v110h284l63 105l71 -43l-37 -62h79v-110z" />
    <glyph glyph-name="lessequal" unicode="&#x2264;" horiz-adv-x="554" 
d="M493 590v-115l-311 -101v-8l311 -102v-115l-431 144v153zM493 0h-431v106h431v-106z" />
    <glyph glyph-name="greaterequal" unicode="&#x2265;" horiz-adv-x="554" 
d="M61 590l431 -144v-153l-431 -144v115l311 102v8l-311 101v115zM61 0v106h431v-106h-431z" />
    <glyph glyph-name="lozenge" unicode="&#x25ca;" horiz-adv-x="607" 
d="M303 570l290 -290l-290 -290l-290 290zM303 412l-131 -132l131 -132l133 132z" />
    <glyph glyph-name="smileface" unicode="&#x263a;" horiz-adv-x="802" 
d="M761 350q0 -150 -105 -255t-255 -105t-255 106t-105 254q0 149 105.5 254.5t254.5 105.5q151 0 255.5 -105.5t104.5 -254.5zM213 533v-45h44v-128h46v128h44v45h-134zM455 533v-45h45v-128h45v128h45v45h-135zM401 81q109 0 187 76t81 183l-46 8q0 -92 -65 -156.5
t-157 -64.5q-91 0 -156 64.5t-65 156.5l-46 -8q3 -107 81 -183t186 -76z" />
    <glyph glyph-name="uni2731" unicode="&#x2731;" horiz-adv-x="552" 
d="M492 347l-129 -67l129 -67l-50 -86l-122 77l6 -144h-100l7 145l-123 -78l-50 86l129 67l-129 67l50 86l123 -78l-7 145h100l-6 -144l122 77z" />
    <glyph glyph-name="uni2780" unicode="&#x2780;" horiz-adv-x="802" 
d="M401 -10q-149 0 -254.5 105t-105.5 255t105.5 255t254.5 105q148 0 254 -105.5t106 -254.5t-106 -254.5t-254 -105.5zM401 63q118 0 201.5 82.5t83.5 204.5t-83.5 204.5t-201.5 82.5t-201 -82.5t-83 -204.5t83 -204.5t201 -82.5zM373 155v240h-93v74h54q43 0 43 44v27h83
v-385h-87z" />
    <glyph glyph-name="uni2781" unicode="&#x2781;" horiz-adv-x="802" 
d="M401 -10q-149 0 -254.5 105t-105.5 255t105.5 255t254.5 105q148 0 254 -105.5t106 -254.5t-106 -254.5t-254 -105.5zM401 63q118 0 201.5 82.5t83.5 204.5t-83.5 204.5t-201.5 82.5t-201 -82.5t-83 -204.5t83 -204.5t201 -82.5zM444 326q-85 -48 -86 -83h178v-73h-273
v28q0 103 95 162q9 6 29.5 17t28 16t18.5 13.5t14.5 16.5t3.5 18q0 19 -12.5 31.5t-34.5 12.5q-26 0 -40.5 -16.5t-14.5 -41.5h-86q0 51 37.5 92t109.5 41q53 0 90.5 -30.5t37.5 -80.5q0 -31 -17 -57.5t-33.5 -38t-44.5 -27.5z" />
    <glyph glyph-name="uni2782" unicode="&#x2782;" horiz-adv-x="802" 
d="M401 -10q-149 0 -254.5 105t-105.5 255t105.5 255t254.5 105q148 0 254 -105.5t106 -254.5t-106 -254.5t-254 -105.5zM401 63q118 0 201.5 82.5t83.5 204.5t-83.5 204.5t-201.5 82.5t-201 -82.5t-83 -204.5t83 -204.5t201 -82.5zM477 359q32 -9 51 -34t19 -57
q0 -52 -39 -84t-110 -32t-106.5 36.5t-38.5 94.5h80q7 -62 68 -62q29 0 46 14t17 37q0 26 -20.5 40.5t-56.5 14.5h-16v67h21q28 0 44 11t16 30q0 20 -13.5 31t-35.5 11q-46 0 -53 -44h-81q0 50 38 82t97 32q56 0 93 -28t37 -71q0 -54 -57 -82v-7z" />
    <glyph glyph-name="uni2783" unicode="&#x2783;" horiz-adv-x="802" 
d="M401 -10q-149 0 -254.5 105t-105.5 255t105.5 255t254.5 105q148 0 254 -105.5t106 -254.5t-106 -254.5t-254 -105.5zM401 63q118 0 201.5 82.5t83.5 204.5t-83.5 204.5t-201.5 82.5t-201 -82.5t-83 -204.5t83 -204.5t201 -82.5zM551 306v-68h-67v-81h-75v81h-185v43
l152 261h108v-236h67zM316 306h93v145h-7z" />
    <glyph glyph-name="uni2784" unicode="&#x2784;" horiz-adv-x="802" 
d="M401 -10q-149 0 -254.5 105t-105.5 255t105.5 255t254.5 105q148 0 254 -105.5t106 -254.5t-106 -254.5t-254 -105.5zM401 63q118 0 201.5 82.5t83.5 204.5t-83.5 204.5t-201.5 82.5t-201 -82.5t-83 -204.5t83 -204.5t201 -82.5zM415 411q62 0 97.5 -37.5t35.5 -94.5
q0 -59 -40.5 -94.5t-106.5 -35.5q-69 0 -106 37t-37 88h80q2 -25 20.5 -41t44.5 -16q29 0 46.5 18t17.5 45q0 28 -17 48t-48 20q-37 0 -60 -34l-75 21l20 204h242v-71h-173l-8 -75q22 18 67 18z" />
    <glyph glyph-name="uni2785" unicode="&#x2785;" horiz-adv-x="802" 
d="M401 -10q-149 0 -254.5 105t-105.5 255t105.5 255t254.5 105q148 0 254 -105.5t106 -254.5t-106 -254.5t-254 -105.5zM401 63q118 0 201.5 82.5t83.5 204.5t-83.5 204.5t-201.5 82.5t-201 -82.5t-83 -204.5t83 -204.5t201 -82.5zM417 413q58 0 92 -35.5t34 -89.5
q0 -59 -41 -94.5t-108 -35.5q-64 0 -104.5 36t-40.5 102q0 53 53 130l84 122h99l-112 -144q16 9 44 9zM398 225q32 0 50 17.5t18 43.5q0 27 -19 44.5t-51 17.5q-31 0 -50 -17.5t-19 -44.5q0 -25 19 -43t52 -18z" />
    <glyph glyph-name="uni2786" unicode="&#x2786;" horiz-adv-x="802" 
d="M401 -10q-149 0 -254.5 105t-105.5 255t105.5 255t254.5 105q148 0 254 -105.5t106 -254.5t-106 -254.5t-254 -105.5zM401 63q118 0 201.5 82.5t83.5 204.5t-83.5 204.5t-201.5 82.5t-201 -82.5t-83 -204.5t83 -204.5t201 -82.5zM272 532h277v-57q-62 -55 -102 -139
t-42 -189h-83q2 108 40 193.5t78 121.5h-168v70z" />
    <glyph glyph-name="uni2787" unicode="&#x2787;" horiz-adv-x="802" 
d="M401 -10q-149 0 -254.5 105t-105.5 255t105.5 255t254.5 105q148 0 254 -105.5t106 -254.5t-106 -254.5t-254 -105.5zM401 63q118 0 201.5 82.5t83.5 204.5t-83.5 204.5t-201.5 82.5t-201 -82.5t-83 -204.5t83 -204.5t201 -82.5zM483 368q34 -9 56 -35.5t22 -60.5
q0 -55 -44 -85.5t-117 -30.5t-116 30.5t-43 85.5q0 36 23.5 61.5t55.5 34.5v6q-55 23 -55 73q0 45 37.5 74.5t99.5 29.5t99.5 -28t37.5 -73q0 -25 -16 -45.5t-40 -30.5v-6zM401 490q-27 0 -44 -12.5t-17 -33.5q0 -22 18 -34.5t42 -12.5q25 0 43.5 12.5t18.5 34.5
q0 21 -17 33.5t-44 12.5zM401 219q35 0 54 14.5t19 39.5q0 24 -19.5 41t-54.5 17q-34 0 -52.5 -17t-18.5 -42q0 -24 18.5 -38.5t53.5 -14.5z" />
    <glyph glyph-name="uni2788" unicode="&#x2788;" horiz-adv-x="802" 
d="M401 -10q-149 0 -254.5 105t-105.5 255t105.5 255t254.5 105q148 0 254 -105.5t106 -254.5t-106 -254.5t-254 -105.5zM401 63q118 0 201.5 82.5t83.5 204.5t-83.5 204.5t-201.5 82.5t-201 -82.5t-83 -204.5t83 -204.5t201 -82.5zM383 291q-58 0 -92 35.5t-34 89.5
q0 59 41 94.5t108 35.5q64 0 104.5 -36t40.5 -102q0 -53 -53 -130l-84 -122h-99l112 144q-16 -9 -44 -9zM402 479q-32 0 -50 -17.5t-18 -43.5q0 -27 19 -44.5t51 -17.5q31 0 50 17.5t19 44.5q0 25 -19 43t-52 18z" />
    <glyph glyph-name="uni2789" unicode="&#x2789;" horiz-adv-x="802" 
d="M401 -10q-149 0 -254.5 105t-105.5 255t105.5 255t254.5 105q148 0 254 -105.5t106 -254.5t-106 -254.5t-254 -105.5zM401 63q118 0 201.5 82.5t83.5 204.5t-83.5 204.5t-201.5 82.5t-201 -82.5t-83 -204.5t83 -204.5t201 -82.5zM493 189q-56 0 -91 43t-35 115t35 115
t90 43t90 -43.5t35 -115.5t-34.5 -114.5t-89.5 -42.5zM258 193v188h-74v63h43q35 0 35 35v22h71v-308h-75zM493 260q50 0 50 86q0 85 -51 85q-25 0 -37.5 -23.5t-12.5 -61.5t12.5 -62t38.5 -24z" />
    <glyph glyph-name="uni278A" unicode="&#x278a;" horiz-adv-x="802" 
d="M401 -10q149 0 254.5 105.5t105.5 254.5t-105.5 254.5t-254.5 105.5t-254.5 -105.5t-105.5 -254.5t105.5 -254.5t254.5 -105.5zM373 155v240h-93v74h54q43 0 43 44v27h83v-385h-87z" />
    <glyph glyph-name="uni278B" unicode="&#x278b;" horiz-adv-x="802" 
d="M401 -10q149 0 254.5 105.5t105.5 254.5t-105.5 254.5t-254.5 105.5t-254.5 -105.5t-105.5 -254.5t105.5 -254.5t254.5 -105.5zM444 326q-85 -48 -86 -83h178v-73h-273v28q0 103 95 162q9 6 29.5 17t28 16t18.5 13.5t14.5 16.5t3.5 18q0 19 -12.5 31.5t-34.5 12.5
q-26 0 -40.5 -16.5t-14.5 -41.5h-86q0 51 37.5 92t109.5 41q53 0 90.5 -30.5t37.5 -80.5q0 -31 -17 -57.5t-33.5 -38t-44.5 -27.5z" />
    <glyph glyph-name="uni278C" unicode="&#x278c;" horiz-adv-x="802" 
d="M401 -10q149 0 254.5 105.5t105.5 254.5t-105.5 254.5t-254.5 105.5t-254.5 -105.5t-105.5 -254.5t105.5 -254.5t254.5 -105.5zM477 359q32 -9 51 -34t19 -57q0 -52 -39 -84t-110 -32t-106.5 36.5t-38.5 94.5h80q7 -62 68 -62q29 0 46 14t17 37q0 26 -20.5 40.5
t-56.5 14.5h-16v67h21q28 0 44 11t16 30q0 20 -13.5 31t-35.5 11q-46 0 -53 -44h-81q0 50 38 82t97 32q56 0 93 -28t37 -71q0 -54 -57 -82v-7z" />
    <glyph glyph-name="uni278D" unicode="&#x278d;" horiz-adv-x="802" 
d="M401 -10q149 0 254.5 105.5t105.5 254.5t-105.5 254.5t-254.5 105.5t-254.5 -105.5t-105.5 -254.5t105.5 -254.5t254.5 -105.5zM551 306v-68h-67v-81h-75v81h-185v43l152 261h108v-236h67zM316 306h93v145h-7z" />
    <glyph glyph-name="uni278E" unicode="&#x278e;" horiz-adv-x="802" 
d="M401 -10q149 0 254.5 105.5t105.5 254.5t-105.5 254.5t-254.5 105.5t-254.5 -105.5t-105.5 -254.5t105.5 -254.5t254.5 -105.5zM415 411q62 0 97.5 -37.5t35.5 -94.5q0 -59 -40.5 -94.5t-106.5 -35.5q-69 0 -106 37t-37 88h80q2 -25 20.5 -41t44.5 -16q29 0 46.5 18
t17.5 45q0 28 -17 48t-48 20q-37 0 -60 -34l-75 21l20 204h242v-71h-173l-8 -75q22 18 67 18z" />
    <glyph glyph-name="uni278F" unicode="&#x278f;" horiz-adv-x="802" 
d="M401 -10q149 0 254.5 105.5t105.5 254.5t-105.5 254.5t-254.5 105.5t-254.5 -105.5t-105.5 -254.5t105.5 -254.5t254.5 -105.5zM417 413q58 0 92 -35.5t34 -89.5q0 -59 -41 -94.5t-108 -35.5q-64 0 -104.5 36t-40.5 102q0 53 53 130l84 122h99l-112 -144q16 9 44 9z
M398 225q32 0 50 17.5t18 43.5q0 27 -19 44.5t-51 17.5q-31 0 -50 -17.5t-19 -44.5q0 -25 19 -43t52 -18z" />
    <glyph glyph-name="uni2790" unicode="&#x2790;" horiz-adv-x="802" 
d="M401 -10q149 0 254.5 105.5t105.5 254.5t-105.5 254.5t-254.5 105.5t-254.5 -105.5t-105.5 -254.5t105.5 -254.5t254.5 -105.5zM272 532h277v-57q-62 -55 -102 -139t-42 -189h-83q2 108 40 193.5t78 121.5h-168v70z" />
    <glyph glyph-name="uni2791" unicode="&#x2791;" horiz-adv-x="802" 
d="M401 -10q149 0 254.5 105.5t105.5 254.5t-105.5 254.5t-254.5 105.5t-254.5 -105.5t-105.5 -254.5t105.5 -254.5t254.5 -105.5zM483 368q34 -9 56 -35.5t22 -60.5q0 -55 -44 -85.5t-117 -30.5t-116 30.5t-43 85.5q0 36 23.5 61.5t55.5 34.5v6q-55 23 -55 73
q0 45 37.5 74.5t99.5 29.5t99.5 -28t37.5 -73q0 -25 -16 -45.5t-40 -30.5v-6zM401 490q-27 0 -44 -12.5t-17 -33.5q0 -22 18 -34.5t42 -12.5q25 0 43.5 12.5t18.5 34.5q0 21 -17 33.5t-44 12.5zM401 219q35 0 54 14.5t19 39.5q0 24 -19.5 41t-54.5 17q-34 0 -52.5 -17
t-18.5 -42q0 -24 18.5 -38.5t53.5 -14.5z" />
    <glyph glyph-name="uni2792" unicode="&#x2792;" horiz-adv-x="802" 
d="M401 -10q149 0 254.5 105.5t105.5 254.5t-105.5 254.5t-254.5 105.5t-254.5 -105.5t-105.5 -254.5t105.5 -254.5t254.5 -105.5zM383 291q-58 0 -92 35.5t-34 89.5q0 59 41 94.5t108 35.5q64 0 104.5 -36t40.5 -102q0 -53 -53 -130l-84 -122h-99l112 144q-16 -9 -44 -9z
M402 479q-32 0 -50 -17.5t-18 -43.5q0 -27 19 -44.5t51 -17.5q31 0 50 17.5t19 44.5q0 25 -19 43t-52 18z" />
    <glyph glyph-name="uni2793" unicode="&#x2793;" horiz-adv-x="802" 
d="M401 -10q149 0 254.5 105.5t105.5 254.5t-105.5 254.5t-254.5 105.5t-254.5 -105.5t-105.5 -254.5t105.5 -254.5t254.5 -105.5zM493 189q-56 0 -91 43t-35 115t35 115t90 43t90 -43.5t35 -115.5t-34.5 -114.5t-89.5 -42.5zM258 193v188h-74v63h43q35 0 35 35v22h71v-308
h-75zM493 260q50 0 50 86q0 85 -51 85q-25 0 -37.5 -23.5t-12.5 -61.5t12.5 -62t38.5 -24z" />
    <glyph glyph-name="fl" unicode="&#xfb02;" horiz-adv-x="589" 
d="M402 710h132v-710h-132v396h-167v-396h-121v396h-92v104h92v53q0 72 41.5 114.5t116.5 42.5q37 0 69 -13l-22 -99q-18 6 -29 6q-26 0 -40.5 -16t-14.5 -44v-44h167v210z" />
    <glyph glyph-name="i.loclTRK" horiz-adv-x="248" 
d="M125 560q-34 0 -58.5 24.5t-24.5 56.5q0 35 24.5 58.5t58.5 23.5t57.5 -23.5t23.5 -58.5q0 -33 -24 -57t-57 -24zM189 500v-500h-130v500h130z" />
    <glyph glyph-name="a.fina" 
d="M533 110l35 -85q-10 -12 -31.5 -23.5t-47.5 -11.5q-43 0 -70.5 20t-36.5 54q-62 -74 -173 -74q-80 0 -128.5 38t-48.5 107q0 150 224 167l93 7v10q0 43 -22.5 68t-60.5 25q-41 0 -62.5 -24.5t-25.5 -55.5h-123q6 79 62 128.5t148 49.5q93 0 151 -53t58 -153v-155
q0 -54 31 -54q13 0 28 15zM228 92q48 0 84.5 32t36.5 86v10l-63 -5q-123 -11 -123 -72q0 -24 18 -37.5t47 -13.5z" />
    <glyph glyph-name="aacute.fina" 
d="M420 695l-111 -140h-91l66 140h136zM533 110l35 -85q-10 -12 -31.5 -23.5t-47.5 -11.5q-43 0 -70.5 20t-36.5 54q-62 -74 -173 -74q-80 0 -128.5 38t-48.5 107q0 150 224 167l93 7v10q0 43 -22.5 68t-60.5 25q-41 0 -62.5 -24.5t-25.5 -55.5h-123q6 79 62 128.5t148 49.5
q93 0 151 -53t58 -153v-155q0 -54 31 -54q13 0 28 15zM228 92q48 0 84.5 32t36.5 86v10l-63 -5q-123 -11 -123 -72q0 -24 18 -37.5t47 -13.5z" />
    <glyph glyph-name="abreve.fina" 
d="M266 567q-60 0 -101.5 35.5t-41.5 87.5h92q0 -21 14 -36t38 -15t36.5 14.5t12.5 36.5h92q0 -52 -41 -87.5t-101 -35.5zM533 110l35 -85q-10 -12 -31.5 -23.5t-47.5 -11.5q-43 0 -70.5 20t-36.5 54q-62 -74 -173 -74q-80 0 -128.5 38t-48.5 107q0 150 224 167l93 7v10
q0 43 -22.5 68t-60.5 25q-41 0 -62.5 -24.5t-25.5 -55.5h-123q6 79 62 128.5t148 49.5q93 0 151 -53t58 -153v-155q0 -54 31 -54q13 0 28 15zM228 92q48 0 84.5 32t36.5 86v10l-63 -5q-123 -11 -123 -72q0 -24 18 -37.5t47 -13.5z" />
    <glyph glyph-name="uni01CE.fina" 
d="M316 551h-102l-121 149h112l54 -72h12l53 72h113zM533 110l35 -85q-10 -12 -31.5 -23.5t-47.5 -11.5q-43 0 -70.5 20t-36.5 54q-62 -74 -173 -74q-80 0 -128.5 38t-48.5 107q0 150 224 167l93 7v10q0 43 -22.5 68t-60.5 25q-41 0 -62.5 -24.5t-25.5 -55.5h-123
q6 79 62 128.5t148 49.5q93 0 151 -53t58 -153v-155q0 -54 31 -54q13 0 28 15zM228 92q48 0 84.5 32t36.5 86v10l-63 -5q-123 -11 -123 -72q0 -24 18 -37.5t47 -13.5z" />
    <glyph glyph-name="acircumflex.fina" 
d="M258 623l-53 -72h-113l121 149h102l121 -149h-112l-54 72h-12zM533 110l35 -85q-10 -12 -31.5 -23.5t-47.5 -11.5q-43 0 -70.5 20t-36.5 54q-62 -74 -173 -74q-80 0 -128.5 38t-48.5 107q0 150 224 167l93 7v10q0 43 -22.5 68t-60.5 25q-41 0 -62.5 -24.5t-25.5 -55.5
h-123q6 79 62 128.5t148 49.5q93 0 151 -53t58 -153v-155q0 -54 31 -54q13 0 28 15zM228 92q48 0 84.5 32t36.5 86v10l-63 -5q-123 -11 -123 -72q0 -24 18 -37.5t47 -13.5z" />
    <glyph glyph-name="adieresis.fina" 
d="M168 544q-29 0 -50 21t-21 50t21 49t50 20t49 -20t20 -49t-20.5 -50t-48.5 -21zM364 544q-28 0 -49 21t-21 50t20.5 49t49.5 20t49.5 -20t20.5 -49t-20.5 -50t-49.5 -21zM533 110l35 -85q-10 -12 -31.5 -23.5t-47.5 -11.5q-43 0 -70.5 20t-36.5 54q-62 -74 -173 -74
q-80 0 -128.5 38t-48.5 107q0 150 224 167l93 7v10q0 43 -22.5 68t-60.5 25q-41 0 -62.5 -24.5t-25.5 -55.5h-123q6 79 62 128.5t148 49.5q93 0 151 -53t58 -153v-155q0 -54 31 -54q13 0 28 15zM228 92q48 0 84.5 32t36.5 86v10l-63 -5q-123 -11 -123 -72q0 -24 18 -37.5
t47 -13.5z" />
    <glyph glyph-name="uni0227.fina" 
d="M265 560q-34 0 -58.5 24.5t-24.5 56.5q0 35 24.5 58.5t58.5 23.5t57.5 -23.5t23.5 -58.5q0 -33 -24 -57t-57 -24zM533 110l35 -85q-10 -12 -31.5 -23.5t-47.5 -11.5q-43 0 -70.5 20t-36.5 54q-62 -74 -173 -74q-80 0 -128.5 38t-48.5 107q0 150 224 167l93 7v10
q0 43 -22.5 68t-60.5 25q-41 0 -62.5 -24.5t-25.5 -55.5h-123q6 79 62 128.5t148 49.5q93 0 151 -53t58 -153v-155q0 -54 31 -54q13 0 28 15zM228 92q48 0 84.5 32t36.5 86v10l-63 -5q-123 -11 -123 -72q0 -24 18 -37.5t47 -13.5z" />
    <glyph glyph-name="uni1EA1.fina" 
d="M533 110l35 -85q-10 -12 -31.5 -23.5t-47.5 -11.5q-43 0 -70.5 20t-36.5 54q-62 -74 -173 -74q-80 0 -128.5 38t-48.5 107q0 150 224 167l93 7v10q0 43 -22.5 68t-60.5 25q-41 0 -62.5 -24.5t-25.5 -55.5h-123q6 79 62 128.5t148 49.5q93 0 151 -53t58 -153v-155
q0 -54 31 -54q13 0 28 15zM228 92q48 0 84.5 32t36.5 86v10l-63 -5q-123 -11 -123 -72q0 -24 18 -37.5t47 -13.5zM278 -60q34 0 57.5 -23.5t23.5 -58.5q0 -33 -24 -57t-57 -24q-34 0 -58.5 24.5t-24.5 56.5q0 35 24.5 58.5t58.5 23.5z" />
    <glyph glyph-name="agrave.fina" 
d="M311 555h-91l-111 140h136zM533 110l35 -85q-10 -12 -31.5 -23.5t-47.5 -11.5q-43 0 -70.5 20t-36.5 54q-62 -74 -173 -74q-80 0 -128.5 38t-48.5 107q0 150 224 167l93 7v10q0 43 -22.5 68t-60.5 25q-41 0 -62.5 -24.5t-25.5 -55.5h-123q6 79 62 128.5t148 49.5
q93 0 151 -53t58 -153v-155q0 -54 31 -54q13 0 28 15zM228 92q48 0 84.5 32t36.5 86v10l-63 -5q-123 -11 -123 -72q0 -24 18 -37.5t47 -13.5z" />
    <glyph glyph-name="amacron.fina" 
d="M430 656v-87h-329v87h329zM533 110l35 -85q-10 -12 -31.5 -23.5t-47.5 -11.5q-43 0 -70.5 20t-36.5 54q-62 -74 -173 -74q-80 0 -128.5 38t-48.5 107q0 150 224 167l93 7v10q0 43 -22.5 68t-60.5 25q-41 0 -62.5 -24.5t-25.5 -55.5h-123q6 79 62 128.5t148 49.5
q93 0 151 -53t58 -153v-155q0 -54 31 -54q13 0 28 15zM228 92q48 0 84.5 32t36.5 86v10l-63 -5q-123 -11 -123 -72q0 -24 18 -37.5t47 -13.5z" />
    <glyph glyph-name="aogonek.fina" horiz-adv-x="542" 
d="M470 -63q0 -38 39.5 -46.5t67.5 11.5v-69q-18 -16 -64 -16q-49 0 -83 27t-34 75q0 49 47 78q-48 17 -62 67q-62 -74 -172 -74q-80 0 -128.5 38t-48.5 107q0 150 224 167l93 7v10q0 43 -22.5 68t-60.5 25q-41 0 -62.5 -24.5t-25.5 -55.5h-123q6 79 62 128.5t148 49.5
q93 0 151 -53t58 -153v-155q0 -54 31 -54q15 0 27 15l35 -85q-8 -13 -55 -33q-42 -17 -42 -55zM228 92q48 0 84.5 32t36.5 86v10l-63 -5q-123 -11 -123 -72q0 -24 18 -37.5t47 -13.5z" />
    <glyph glyph-name="aring.fina" 
d="M264 533q-41 0 -70.5 29t-29.5 70t29.5 70t70.5 29t71 -29.5t30 -69.5t-30 -69.5t-71 -29.5zM265 663q-12 0 -21 -9.5t-9 -21.5t8.5 -21t21.5 -9q12 0 21 9t9 21t-9 21.5t-21 9.5zM533 110l35 -85q-10 -12 -31.5 -23.5t-47.5 -11.5q-43 0 -70.5 20t-36.5 54
q-62 -74 -173 -74q-80 0 -128.5 38t-48.5 107q0 150 224 167l93 7v10q0 43 -22.5 68t-60.5 25q-41 0 -62.5 -24.5t-25.5 -55.5h-123q6 79 62 128.5t148 49.5q93 0 151 -53t58 -153v-155q0 -54 31 -54q13 0 28 15zM228 92q48 0 84.5 32t36.5 86v10l-63 -5q-123 -11 -123 -72
q0 -24 18 -37.5t47 -13.5z" />
    <glyph glyph-name="atilde.fina" 
d="M200 597q-35 0 -56 -45l-68 36q12 37 41 67.5t76 30.5q39 0 78.5 -24.5t59.5 -24.5q36 0 56 45l68 -36q-12 -37 -41.5 -68t-76.5 -31q-39 0 -78 25t-59 25zM533 110l35 -85q-10 -12 -31.5 -23.5t-47.5 -11.5q-43 0 -70.5 20t-36.5 54q-62 -74 -173 -74q-80 0 -128.5 38
t-48.5 107q0 150 224 167l93 7v10q0 43 -22.5 68t-60.5 25q-41 0 -62.5 -24.5t-25.5 -55.5h-123q6 79 62 128.5t148 49.5q93 0 151 -53t58 -153v-155q0 -54 31 -54q13 0 28 15zM228 92q48 0 84.5 32t36.5 86v10l-63 -5q-123 -11 -123 -72q0 -24 18 -37.5t47 -13.5z" />
    <glyph glyph-name="a.ss02" horiz-adv-x="585" 
d="M403 500h127v-500h-99l-15 58h-13q-52 -67 -142 -67q-96 0 -162.5 71t-66.5 187q0 118 68 190t167 72q94 0 136 -62v51zM160 251q0 -64 34.5 -104t88.5 -40t87 40.5t33 103.5t-33 103t-87 40t-88.5 -40t-34.5 -103z" />
    <glyph glyph-name="aacute.ss02" horiz-adv-x="585" 
d="M302 696h136l-111 -140h-91zM403 500h127v-500h-99l-15 58h-13q-52 -67 -142 -67q-96 0 -162.5 71t-66.5 187q0 118 68 190t167 72q94 0 136 -62v51zM160 251q0 -64 34.5 -104t88.5 -40t87 40.5t33 103.5t-33 103t-87 40t-88.5 -40t-34.5 -103z" />
    <glyph glyph-name="abreve.ss02" horiz-adv-x="585" 
d="M426 691q0 -52 -41 -87.5t-101 -35.5t-101.5 35.5t-41.5 87.5h92q0 -21 14 -36t38 -15t36.5 14.5t12.5 36.5h92zM403 500h127v-500h-99l-15 58h-13q-52 -67 -142 -67q-96 0 -162.5 71t-66.5 187q0 118 68 190t167 72q94 0 136 -62v51zM160 251q0 -64 34.5 -104t88.5 -40
t87 40.5t33 103.5t-33 103t-87 40t-88.5 -40t-34.5 -103z" />
    <glyph glyph-name="uni01CE.ss02" horiz-adv-x="585" 
d="M342 701h113l-121 -149h-102l-121 149h112l54 -72h12zM403 500h127v-500h-99l-15 58h-13q-52 -67 -142 -67q-96 0 -162.5 71t-66.5 187q0 118 68 190t167 72q94 0 136 -62v51zM160 251q0 -64 34.5 -104t88.5 -40t87 40.5t33 103.5t-33 103t-87 40t-88.5 -40t-34.5 -103z
" />
    <glyph glyph-name="acircumflex.ss02" horiz-adv-x="585" 
d="M223 552h-113l121 149h102l121 -149h-112l-54 72h-12zM403 500h127v-500h-99l-15 58h-13q-52 -67 -142 -67q-96 0 -162.5 71t-66.5 187q0 118 68 190t167 72q94 0 136 -62v51zM160 251q0 -64 34.5 -104t88.5 -40t87 40.5t33 103.5t-33 103t-87 40t-88.5 -40t-34.5 -103z
" />
    <glyph glyph-name="adieresis.ss02" horiz-adv-x="585" 
d="M186 545q-29 0 -50 21t-21 50t21 49t50 20t49 -20t20 -49t-20.5 -50t-48.5 -21zM382 545q-28 0 -49 21t-21 50t20.5 49t49.5 20t49.5 -20t20.5 -49t-20.5 -50t-49.5 -21zM403 500h127v-500h-99l-15 58h-13q-52 -67 -142 -67q-96 0 -162.5 71t-66.5 187q0 118 68 190
t167 72q94 0 136 -62v51zM160 251q0 -64 34.5 -104t88.5 -40t87 40.5t33 103.5t-33 103t-87 40t-88.5 -40t-34.5 -103z" />
    <glyph glyph-name="uni0227.ss02" horiz-adv-x="585" 
d="M283 561q-34 0 -58.5 24.5t-24.5 56.5q0 35 24.5 58.5t58.5 23.5t57.5 -23.5t23.5 -58.5q0 -33 -24 -57t-57 -24zM403 500h127v-500h-99l-15 58h-13q-52 -67 -142 -67q-96 0 -162.5 71t-66.5 187q0 118 68 190t167 72q94 0 136 -62v51zM160 251q0 -64 34.5 -104t88.5 -40
t87 40.5t33 103.5t-33 103t-87 40t-88.5 -40t-34.5 -103z" />
    <glyph glyph-name="uni1EA1.ss02" horiz-adv-x="585" 
d="M403 500h127v-500h-99l-15 58h-13q-52 -67 -142 -67q-96 0 -162.5 71t-66.5 187q0 118 68 190t167 72q94 0 136 -62v51zM160 251q0 -64 34.5 -104t88.5 -40t87 40.5t33 103.5t-33 103t-87 40t-88.5 -40t-34.5 -103zM282 -222q-34 0 -58.5 24.5t-24.5 56.5q0 35 24.5 58.5
t58.5 23.5t57.5 -23.5t23.5 -58.5q0 -33 -24 -57t-57 -24z" />
    <glyph glyph-name="agrave.ss02" horiz-adv-x="585" 
d="M263 696l66 -140h-91l-111 140h136zM403 500h127v-500h-99l-15 58h-13q-52 -67 -142 -67q-96 0 -162.5 71t-66.5 187q0 118 68 190t167 72q94 0 136 -62v51zM160 251q0 -64 34.5 -104t88.5 -40t87 40.5t33 103.5t-33 103t-87 40t-88.5 -40t-34.5 -103z" />
    <glyph glyph-name="amacron.ss02" horiz-adv-x="585" 
d="M119 657h329v-87h-329v87zM403 500h127v-500h-99l-15 58h-13q-52 -67 -142 -67q-96 0 -162.5 71t-66.5 187q0 118 68 190t167 72q94 0 136 -62v51zM160 251q0 -64 34.5 -104t88.5 -40t87 40.5t33 103.5t-33 103t-87 40t-88.5 -40t-34.5 -103z" />
    <glyph glyph-name="aogonek.ss02" horiz-adv-x="585" 
d="M465 -63q0 -38 39.5 -46.5t66.5 11.5v-69q-18 -16 -64 -16q-49 0 -83 27t-34 75q0 50 50 81h-9l-15 58h-13q-52 -67 -142 -67q-96 0 -162.5 71t-66.5 187q0 118 68 190t167 72q94 0 136 -62v51h127v-500q-29 -7 -47 -24.5t-18 -38.5zM283 107q54 0 87 40.5t33 103.5
t-33 103t-87 40t-88.5 -40t-34.5 -103q0 -64 34.5 -104t88.5 -40z" />
    <glyph glyph-name="aring.ss02" horiz-adv-x="585" 
d="M282 534q-41 0 -70.5 29t-29.5 70t29.5 70t70.5 29t71 -29.5t30 -69.5t-30 -69.5t-71 -29.5zM283 603q12 0 21 9t9 21t-9 21.5t-21 9.5t-21 -9.5t-9 -21.5t8.5 -21t21.5 -9zM403 500h127v-500h-99l-15 58h-13q-52 -67 -142 -67q-96 0 -162.5 71t-66.5 187q0 118 68 190
t167 72q94 0 136 -62v51zM160 251q0 -64 34.5 -104t88.5 -40t87 40.5t33 103.5t-33 103t-87 40t-88.5 -40t-34.5 -103z" />
    <glyph glyph-name="atilde.ss02" horiz-adv-x="585" 
d="M473 647q-12 -37 -41.5 -68t-76.5 -31q-39 0 -78 25t-59 25q-35 0 -56 -45l-68 36q12 37 41 67.5t76 30.5q39 0 78.5 -24.5t59.5 -24.5q36 0 56 45zM403 500h127v-500h-99l-15 58h-13q-52 -67 -142 -67q-96 0 -162.5 71t-66.5 187q0 118 68 190t167 72q94 0 136 -62v51z
M160 251q0 -64 34.5 -104t88.5 -40t87 40.5t33 103.5t-33 103t-87 40t-88.5 -40t-34.5 -103z" />
    <glyph glyph-name="a.fina.ss02" horiz-adv-x="601" 
d="M595 115l42 -79q-10 -19 -35 -32.5t-57 -13.5q-103 0 -118 87h-8q-17 -25 -33 -41t-49.5 -31t-75.5 -15q-96 0 -162.5 71t-66.5 187q0 118 68 190t168 72q92 0 135 -56v46h127v-286h1v-65q0 -54 35 -54q17 0 29 20zM283 106q54 0 87 40.5t33 103.5q0 64 -33 103.5
t-87 39.5t-88.5 -40t-34.5 -103t34.5 -103.5t88.5 -40.5z" />
    <glyph glyph-name="aacute.fina.ss02" horiz-adv-x="601" 
d="M439 695l-111 -140h-91l66 140h136zM595 115l42 -79q-10 -19 -35 -32.5t-57 -13.5q-103 0 -118 87h-8q-17 -25 -33 -41t-49.5 -31t-75.5 -15q-96 0 -162.5 71t-66.5 187q0 118 68 190t168 72q92 0 135 -56v46h127v-286h1v-65q0 -54 35 -54q17 0 29 20zM283 106
q54 0 87 40.5t33 103.5q0 64 -33 103.5t-87 39.5t-88.5 -40t-34.5 -103t34.5 -103.5t88.5 -40.5z" />
    <glyph glyph-name="abreve.fina.ss02" horiz-adv-x="601" 
d="M285 567q-60 0 -101.5 35.5t-41.5 87.5h92q0 -21 14 -36t38 -15t36.5 14.5t12.5 36.5h92q0 -52 -41 -87.5t-101 -35.5zM595 115l42 -79q-10 -19 -35 -32.5t-57 -13.5q-103 0 -118 87h-8q-17 -25 -33 -41t-49.5 -31t-75.5 -15q-96 0 -162.5 71t-66.5 187q0 118 68 190
t168 72q92 0 135 -56v46h127v-286h1v-65q0 -54 35 -54q17 0 29 20zM283 106q54 0 87 40.5t33 103.5q0 64 -33 103.5t-87 39.5t-88.5 -40t-34.5 -103t34.5 -103.5t88.5 -40.5z" />
    <glyph glyph-name="uni01CE.fina.ss02" horiz-adv-x="601" 
d="M335 551h-102l-121 149h112l54 -72h12l53 72h113zM595 115l42 -79q-10 -19 -35 -32.5t-57 -13.5q-103 0 -118 87h-8q-17 -25 -33 -41t-49.5 -31t-75.5 -15q-96 0 -162.5 71t-66.5 187q0 118 68 190t168 72q92 0 135 -56v46h127v-286h1v-65q0 -54 35 -54q17 0 29 20z
M283 106q54 0 87 40.5t33 103.5q0 64 -33 103.5t-87 39.5t-88.5 -40t-34.5 -103t34.5 -103.5t88.5 -40.5z" />
    <glyph glyph-name="acircumflex.fina.ss02" horiz-adv-x="601" 
d="M277 623l-53 -72h-113l121 149h102l121 -149h-112l-54 72h-12zM595 115l42 -79q-10 -19 -35 -32.5t-57 -13.5q-103 0 -118 87h-8q-17 -25 -33 -41t-49.5 -31t-75.5 -15q-96 0 -162.5 71t-66.5 187q0 118 68 190t168 72q92 0 135 -56v46h127v-286h1v-65q0 -54 35 -54
q17 0 29 20zM283 106q54 0 87 40.5t33 103.5q0 64 -33 103.5t-87 39.5t-88.5 -40t-34.5 -103t34.5 -103.5t88.5 -40.5z" />
    <glyph glyph-name="adieresis.fina.ss02" horiz-adv-x="601" 
d="M187 544q-29 0 -50 21t-21 50t21 49t50 20t49 -20t20 -49t-20.5 -50t-48.5 -21zM383 544q-28 0 -49 21t-21 50t20.5 49t49.5 20t49.5 -20t20.5 -49t-20.5 -50t-49.5 -21zM595 115l42 -79q-10 -19 -35 -32.5t-57 -13.5q-103 0 -118 87h-8q-17 -25 -33 -41t-49.5 -31
t-75.5 -15q-96 0 -162.5 71t-66.5 187q0 118 68 190t168 72q92 0 135 -56v46h127v-286h1v-65q0 -54 35 -54q17 0 29 20zM283 106q54 0 87 40.5t33 103.5q0 64 -33 103.5t-87 39.5t-88.5 -40t-34.5 -103t34.5 -103.5t88.5 -40.5z" />
    <glyph glyph-name="uni0227.fina.ss02" horiz-adv-x="601" 
d="M284 560q-34 0 -58.5 24.5t-24.5 56.5q0 35 24.5 58.5t58.5 23.5t57.5 -23.5t23.5 -58.5q0 -33 -24 -57t-57 -24zM595 115l42 -79q-10 -19 -35 -32.5t-57 -13.5q-103 0 -118 87h-8q-17 -25 -33 -41t-49.5 -31t-75.5 -15q-96 0 -162.5 71t-66.5 187q0 118 68 190t168 72
q92 0 135 -56v46h127v-286h1v-65q0 -54 35 -54q17 0 29 20zM283 106q54 0 87 40.5t33 103.5q0 64 -33 103.5t-87 39.5t-88.5 -40t-34.5 -103t34.5 -103.5t88.5 -40.5z" />
    <glyph glyph-name="uni1EA1.fina.ss02" horiz-adv-x="601" 
d="M595 115l42 -79q-10 -19 -35 -32.5t-57 -13.5q-103 0 -118 87h-8q-17 -25 -33 -41t-49.5 -31t-75.5 -15q-96 0 -162.5 71t-66.5 187q0 118 68 190t168 72q92 0 135 -56v46h127v-286h1v-65q0 -54 35 -54q17 0 29 20zM283 106q54 0 87 40.5t33 103.5q0 64 -33 103.5
t-87 39.5t-88.5 -40t-34.5 -103t34.5 -103.5t88.5 -40.5zM339 -60q34 0 57.5 -23.5t23.5 -58.5q0 -33 -24 -57t-57 -24q-34 0 -58.5 24.5t-24.5 56.5q0 35 24.5 58.5t58.5 23.5z" />
    <glyph glyph-name="agrave.fina.ss02" horiz-adv-x="601" 
d="M330 555h-91l-111 140h136zM595 115l42 -79q-10 -19 -35 -32.5t-57 -13.5q-103 0 -118 87h-8q-17 -25 -33 -41t-49.5 -31t-75.5 -15q-96 0 -162.5 71t-66.5 187q0 118 68 190t168 72q92 0 135 -56v46h127v-286h1v-65q0 -54 35 -54q17 0 29 20zM283 106q54 0 87 40.5
t33 103.5q0 64 -33 103.5t-87 39.5t-88.5 -40t-34.5 -103t34.5 -103.5t88.5 -40.5z" />
    <glyph glyph-name="amacron.fina.ss02" horiz-adv-x="601" 
d="M449 656v-87h-329v87h329zM595 115l42 -79q-10 -19 -35 -32.5t-57 -13.5q-103 0 -118 87h-8q-17 -25 -33 -41t-49.5 -31t-75.5 -15q-96 0 -162.5 71t-66.5 187q0 118 68 190t168 72q92 0 135 -56v46h127v-286h1v-65q0 -54 35 -54q17 0 29 20zM283 106q54 0 87 40.5
t33 103.5q0 64 -33 103.5t-87 39.5t-88.5 -40t-34.5 -103t34.5 -103.5t88.5 -40.5z" />
    <glyph glyph-name="aogonek.fina.ss02" horiz-adv-x="606" 
d="M531 -63q0 -38 40 -46.5t67 11.5v-69q-18 -16 -64 -16q-49 0 -83 27t-34 75q0 47 44 76q-62 17 -73 82h-9q-17 -25 -33 -41t-49.5 -31t-75.5 -15q-96 0 -162.5 71t-66.5 187q0 118 68 190t168 72q92 0 135 -56v46h127v-351q0 -54 36 -54q18 0 28 20l43 -79
q-11 -20 -62 -42q-44 -20 -44 -57zM283 106q54 0 87 40.5t33 103.5q0 64 -33 103.5t-87 39.5t-88.5 -40t-34.5 -103t34.5 -103.5t88.5 -40.5z" />
    <glyph glyph-name="aring.fina.ss02" horiz-adv-x="601" 
d="M283 533q-41 0 -70.5 29t-29.5 70t29.5 70t70.5 29t71 -29.5t30 -69.5t-30 -69.5t-71 -29.5zM284 663q-12 0 -21 -9.5t-9 -21.5t8.5 -21t21.5 -9q12 0 21 9t9 21t-9 21.5t-21 9.5zM595 115l42 -79q-10 -19 -35 -32.5t-57 -13.5q-103 0 -118 87h-8q-17 -25 -33 -41
t-49.5 -31t-75.5 -15q-96 0 -162.5 71t-66.5 187q0 118 68 190t168 72q92 0 135 -56v46h127v-286h1v-65q0 -54 35 -54q17 0 29 20zM283 106q54 0 87 40.5t33 103.5q0 64 -33 103.5t-87 39.5t-88.5 -40t-34.5 -103t34.5 -103.5t88.5 -40.5z" />
    <glyph glyph-name="atilde.fina.ss02" horiz-adv-x="601" 
d="M219 597q-35 0 -56 -45l-68 36q12 37 41 67.5t76 30.5q39 0 78.5 -24.5t59.5 -24.5q36 0 56 45l68 -36q-12 -37 -41.5 -68t-76.5 -31q-39 0 -78 25t-59 25zM595 115l42 -79q-10 -19 -35 -32.5t-57 -13.5q-103 0 -118 87h-8q-17 -25 -33 -41t-49.5 -31t-75.5 -15
q-96 0 -162.5 71t-66.5 187q0 118 68 190t168 72q92 0 135 -56v46h127v-286h1v-65q0 -54 35 -54q17 0 29 20zM283 106q54 0 87 40.5t33 103.5q0 64 -33 103.5t-87 39.5t-88.5 -40t-34.5 -103t34.5 -103.5t88.5 -40.5z" />
    <glyph glyph-name="g.ss02" horiz-adv-x="585" 
d="M531 500v-183l-1 1v-303q0 -110 -68.5 -168.5t-173.5 -58.5q-109 0 -172.5 48.5t-70.5 133.5h130q5 -30 33.5 -50.5t76.5 -20.5q49 0 83.5 28.5t34.5 85.5v31q-43 -56 -135 -56q-100 0 -168 72t-68 190q0 116 66.5 187t162.5 71q88 0 142 -66h13l15 58h100zM283 105
q54 0 87 39.5t33 103.5q0 63 -33 103.5t-87 40.5t-88.5 -40.5t-34.5 -103.5t34.5 -103t88.5 -40z" />
    <glyph glyph-name="uni01F5.ss02" horiz-adv-x="585" 
d="M438 695l-111 -140h-91l66 140h136zM531 500v-183l-1 1v-303q0 -110 -68.5 -168.5t-173.5 -58.5q-109 0 -172.5 48.5t-70.5 133.5h130q5 -30 33.5 -50.5t76.5 -20.5q49 0 83.5 28.5t34.5 85.5v31q-43 -56 -135 -56q-100 0 -168 72t-68 190q0 116 66.5 187t162.5 71
q88 0 142 -66h13l15 58h100zM283 105q54 0 87 39.5t33 103.5q0 63 -33 103.5t-87 40.5t-88.5 -40.5t-34.5 -103.5t34.5 -103t88.5 -40z" />
    <glyph glyph-name="gbreve.ss02" horiz-adv-x="585" 
d="M284 567q-60 0 -101.5 35.5t-41.5 87.5h92q0 -21 14 -36t38 -15t36.5 14.5t12.5 36.5h92q0 -52 -41 -87.5t-101 -35.5zM531 500v-183l-1 1v-303q0 -110 -68.5 -168.5t-173.5 -58.5q-109 0 -172.5 48.5t-70.5 133.5h130q5 -30 33.5 -50.5t76.5 -20.5q49 0 83.5 28.5
t34.5 85.5v31q-43 -56 -135 -56q-100 0 -168 72t-68 190q0 116 66.5 187t162.5 71q88 0 142 -66h13l15 58h100zM283 105q54 0 87 39.5t33 103.5q0 63 -33 103.5t-87 40.5t-88.5 -40.5t-34.5 -103.5t34.5 -103t88.5 -40z" />
    <glyph glyph-name="gcaron.ss02" horiz-adv-x="585" 
d="M334 551h-102l-121 149h112l54 -72h12l53 72h113zM531 500v-183l-1 1v-303q0 -110 -68.5 -168.5t-173.5 -58.5q-109 0 -172.5 48.5t-70.5 133.5h130q5 -30 33.5 -50.5t76.5 -20.5q49 0 83.5 28.5t34.5 85.5v31q-43 -56 -135 -56q-100 0 -168 72t-68 190q0 116 66.5 187
t162.5 71q88 0 142 -66h13l15 58h100zM283 105q54 0 87 39.5t33 103.5q0 63 -33 103.5t-87 40.5t-88.5 -40.5t-34.5 -103.5t34.5 -103t88.5 -40z" />
    <glyph glyph-name="gcircumflex.ss02" horiz-adv-x="585" 
d="M276 623l-53 -72h-113l121 149h102l121 -149h-112l-54 72h-12zM531 500v-183l-1 1v-303q0 -110 -68.5 -168.5t-173.5 -58.5q-109 0 -172.5 48.5t-70.5 133.5h130q5 -30 33.5 -50.5t76.5 -20.5q49 0 83.5 28.5t34.5 85.5v31q-43 -56 -135 -56q-100 0 -168 72t-68 190
q0 116 66.5 187t162.5 71q88 0 142 -66h13l15 58h100zM283 105q54 0 87 39.5t33 103.5q0 63 -33 103.5t-87 40.5t-88.5 -40.5t-34.5 -103.5t34.5 -103t88.5 -40z" />
    <glyph glyph-name="gcommaaccent.ss02" horiz-adv-x="585" 
d="M285 549q-38 0 -60 29.5t-22 75.5q0 68 36.5 116.5t85.5 72.5l28 -33q-65 -55 -68 -106q30 5 53.5 -16t23.5 -60q0 -36 -22 -57.5t-55 -21.5zM531 500v-183l-1 1v-303q0 -110 -68.5 -168.5t-173.5 -58.5q-109 0 -172.5 48.5t-70.5 133.5h130q5 -30 33.5 -50.5t76.5 -20.5
q49 0 83.5 28.5t34.5 85.5v31q-43 -56 -135 -56q-100 0 -168 72t-68 190q0 116 66.5 187t162.5 71q88 0 142 -66h13l15 58h100zM283 105q54 0 87 39.5t33 103.5q0 63 -33 103.5t-87 40.5t-88.5 -40.5t-34.5 -103.5t34.5 -103t88.5 -40z" />
    <glyph glyph-name="gdotaccent.ss02" horiz-adv-x="585" 
d="M283 560q-34 0 -58.5 24.5t-24.5 56.5q0 35 24.5 58.5t58.5 23.5t57.5 -23.5t23.5 -58.5q0 -33 -24 -57t-57 -24zM531 500v-183l-1 1v-303q0 -110 -68.5 -168.5t-173.5 -58.5q-109 0 -172.5 48.5t-70.5 133.5h130q5 -30 33.5 -50.5t76.5 -20.5q49 0 83.5 28.5t34.5 85.5
v31q-43 -56 -135 -56q-100 0 -168 72t-68 190q0 116 66.5 187t162.5 71q88 0 142 -66h13l15 58h100zM283 105q54 0 87 39.5t33 103.5q0 63 -33 103.5t-87 40.5t-88.5 -40.5t-34.5 -103.5t34.5 -103t88.5 -40z" />
    <glyph glyph-name="y.ss02" horiz-adv-x="596" 
d="M406 500h135v-484q0 -113 -65 -169.5t-180 -56.5q-104 0 -168 50t-70 127h129q20 -66 111 -66q52 0 84 26t32 83v51h-7q-54 -71 -153 -71q-87 0 -141.5 59.5t-54.5 167.5v283h135v-261q0 -64 29.5 -97t77.5 -33q45 0 75.5 32t30.5 95v264z" />
    <glyph glyph-name="yacute.ss02" horiz-adv-x="596" 
d="M317 695h136l-111 -140h-91zM406 500h135v-484q0 -113 -65 -169.5t-180 -56.5q-104 0 -168 50t-70 127h129q20 -66 111 -66q52 0 84 26t32 83v51h-7q-54 -71 -153 -71q-87 0 -141.5 59.5t-54.5 167.5v283h135v-261q0 -64 29.5 -97t77.5 -33q45 0 75.5 32t30.5 95v264z
" />
    <glyph glyph-name="ycircumflex.ss02" horiz-adv-x="596" 
d="M238 551h-113l121 149h102l121 -149h-112l-54 72h-12zM406 500h135v-484q0 -113 -65 -169.5t-180 -56.5q-104 0 -168 50t-70 127h129q20 -66 111 -66q52 0 84 26t32 83v51h-7q-54 -71 -153 -71q-87 0 -141.5 59.5t-54.5 167.5v283h135v-261q0 -64 29.5 -97t77.5 -33
q45 0 75.5 32t30.5 95v264z" />
    <glyph glyph-name="ydieresis.ss02" horiz-adv-x="596" 
d="M201 544q-29 0 -50 21t-21 50t21 49t50 20t49 -20t20 -49t-20.5 -50t-48.5 -21zM397 544q-28 0 -49 21t-21 50t20.5 49t49.5 20t49.5 -20t20.5 -49t-20.5 -50t-49.5 -21zM406 500h135v-484q0 -113 -65 -169.5t-180 -56.5q-104 0 -168 50t-70 127h129q20 -66 111 -66
q52 0 84 26t32 83v51h-7q-54 -71 -153 -71q-87 0 -141.5 59.5t-54.5 167.5v283h135v-261q0 -64 29.5 -97t77.5 -33q45 0 75.5 32t30.5 95v264z" />
    <glyph glyph-name="ygrave.ss02" horiz-adv-x="596" 
d="M278 695l66 -140h-91l-111 140h136zM406 500h135v-484q0 -113 -65 -169.5t-180 -56.5q-104 0 -168 50t-70 127h129q20 -66 111 -66q52 0 84 26t32 83v51h-7q-54 -71 -153 -71q-87 0 -141.5 59.5t-54.5 167.5v283h135v-261q0 -64 29.5 -97t77.5 -33q45 0 75.5 32t30.5 95
v264z" />
    <glyph glyph-name="uni0233.ss02" horiz-adv-x="596" 
d="M134 656h329v-87h-329v87zM406 500h135v-484q0 -113 -65 -169.5t-180 -56.5q-104 0 -168 50t-70 127h129q20 -66 111 -66q52 0 84 26t32 83v51h-7q-54 -71 -153 -71q-87 0 -141.5 59.5t-54.5 167.5v283h135v-261q0 -64 29.5 -97t77.5 -33q45 0 75.5 32t30.5 95v264z" />
    <glyph glyph-name="uni1E99.ss02" horiz-adv-x="596" 
d="M297 533q-41 0 -70.5 29t-29.5 70t29.5 70t70.5 29t71 -29.5t30 -69.5t-30 -69.5t-71 -29.5zM298 602q12 0 21 9t9 21t-9 21.5t-21 9.5t-21 -9.5t-9 -21.5t8.5 -21t21.5 -9zM406 500h135v-484q0 -113 -65 -169.5t-180 -56.5q-104 0 -168 50t-70 127h129q20 -66 111 -66
q52 0 84 26t32 83v51h-7q-54 -71 -153 -71q-87 0 -141.5 59.5t-54.5 167.5v283h135v-261q0 -64 29.5 -97t77.5 -33q45 0 75.5 32t30.5 95v264z" />
    <glyph glyph-name="uni1EF9.ss02" horiz-adv-x="596" 
d="M488 646q-12 -37 -41.5 -68t-76.5 -31q-39 0 -78 25t-59 25q-35 0 -56 -45l-68 36q12 37 41 67.5t76 30.5q39 0 78.5 -24.5t59.5 -24.5q36 0 56 45zM406 500h135v-484q0 -113 -65 -169.5t-180 -56.5q-104 0 -168 50t-70 127h129q20 -66 111 -66q52 0 84 26t32 83v51h-7
q-54 -71 -153 -71q-87 0 -141.5 59.5t-54.5 167.5v283h135v-261q0 -64 29.5 -97t77.5 -33q45 0 75.5 32t30.5 95v264z" />
    <glyph glyph-name="f_f_l" horiz-adv-x="900" 
d="M713 710h132v-710h-132v396h-167v-396h-121v396h-178v-396h-128v396h-97v104h97v41q0 78 46 123.5t116 45.5q77 0 120 -36l-37 -101q-26 23 -59 23q-27 0 -42.5 -17t-15.5 -50v-29h178v53q0 72 41.5 114.5t116.5 42.5q37 0 69 -13l-22 -99q-18 6 -29 6q-26 0 -40.5 -16
t-14.5 -44v-44h167v210z" />
    <glyph glyph-name="f_t" horiz-adv-x="734" 
d="M711 396h-124v-234q0 -58 46 -58q22 0 47 14l27 -101q-44 -27 -98 -27q-152 0 -152 160v246h-210v-396h-128v396h-97v104h97v41q0 78 46 123.5t116 45.5q77 0 120 -36l-37 -101q-26 23 -59 23q-27 0 -42.5 -17t-15.5 -50v-29h142q39 0 59 19t20 52v55h119v-126h124v-104z
" />
    <glyph glyph-name="t_t" horiz-adv-x="714" 
d="M691 396h-124v-234q0 -58 46 -58q22 0 47 14l27 -101q-44 -27 -98 -27q-152 0 -152 160v246h-187v-234q0 -58 46 -58q22 0 47 14l27 -101q-44 -27 -98 -27q-152 0 -152 160v246h-98v95h31q38 0 58.5 18.5t20.5 51.5v65h118v-126h119q39 0 59 19t20 52v55h119v-126h124
v-104z" />
    <glyph glyph-name="uni2780.ss01" horiz-adv-x="803" 
d="M401 -10q-149 0 -254.5 106t-105.5 254t105.5 254t254.5 106t255 -106t106 -254t-106 -254t-255 -106zM401 37q130 0 220.5 91.5t90.5 221.5t-90.5 221t-220.5 91q-129 0 -219.5 -91t-90.5 -221t90.5 -221.5t219.5 -91.5zM373 155v240h-93v74h54q43 0 43 44v27h83v-385
h-87z" />
    <glyph glyph-name="uni2781.ss01" horiz-adv-x="803" 
d="M401 -10q-149 0 -254.5 106t-105.5 254t105.5 254t254.5 106t255 -106t106 -254t-106 -254t-255 -106zM401 37q130 0 220.5 91.5t90.5 221.5t-90.5 221t-220.5 91q-129 0 -219.5 -91t-90.5 -221t90.5 -221.5t219.5 -91.5zM444 326q-85 -48 -86 -83h178v-73h-273v28
q0 103 95 162q9 6 29.5 17t28 16t18.5 13.5t14.5 16.5t3.5 18q0 19 -12.5 31.5t-34.5 12.5q-26 0 -40.5 -16.5t-14.5 -41.5h-86q0 51 37.5 92t109.5 41q53 0 90.5 -30.5t37.5 -80.5q0 -31 -17 -57.5t-33.5 -38t-44.5 -27.5z" />
    <glyph glyph-name="uni2782.ss01" horiz-adv-x="803" 
d="M401 -10q-149 0 -254.5 106t-105.5 254t105.5 254t254.5 106t255 -106t106 -254t-106 -254t-255 -106zM401 37q130 0 220.5 91.5t90.5 221.5t-90.5 221t-220.5 91q-129 0 -219.5 -91t-90.5 -221t90.5 -221.5t219.5 -91.5zM477 359q32 -9 51 -34t19 -57q0 -52 -39 -84
t-110 -32t-106.5 36.5t-38.5 94.5h80q7 -62 68 -62q29 0 46 14t17 37q0 26 -20.5 40.5t-56.5 14.5h-16v67h21q28 0 44 11t16 30q0 20 -13.5 31t-35.5 11q-46 0 -53 -44h-81q0 50 38 82t97 32q56 0 93 -28t37 -71q0 -54 -57 -82v-7z" />
    <glyph glyph-name="uni2783.ss01" horiz-adv-x="803" 
d="M401 -10q-149 0 -254.5 106t-105.5 254t105.5 254t254.5 106t255 -106t106 -254t-106 -254t-255 -106zM401 37q130 0 220.5 91.5t90.5 221.5t-90.5 221t-220.5 91q-129 0 -219.5 -91t-90.5 -221t90.5 -221.5t219.5 -91.5zM551 306v-68h-67v-81h-75v81h-185v43l152 261
h108v-236h67zM316 306h93v145h-7z" />
    <glyph glyph-name="uni2784.ss01" horiz-adv-x="803" 
d="M401 -10q-149 0 -254.5 106t-105.5 254t105.5 254t254.5 106t255 -106t106 -254t-106 -254t-255 -106zM401 37q130 0 220.5 91.5t90.5 221.5t-90.5 221t-220.5 91q-129 0 -219.5 -91t-90.5 -221t90.5 -221.5t219.5 -91.5zM415 411q62 0 97.5 -37.5t35.5 -94.5
q0 -59 -40.5 -94.5t-106.5 -35.5q-69 0 -106 37t-37 88h80q2 -25 20.5 -41t44.5 -16q29 0 46.5 18t17.5 45q0 28 -17 48t-48 20q-37 0 -60 -34l-75 21l20 204h242v-71h-173l-8 -75q22 18 67 18z" />
    <glyph glyph-name="uni2785.ss01" horiz-adv-x="803" 
d="M401 -10q-149 0 -254.5 106t-105.5 254t105.5 254t254.5 106t255 -106t106 -254t-106 -254t-255 -106zM401 37q130 0 220.5 91.5t90.5 221.5t-90.5 221t-220.5 91q-129 0 -219.5 -91t-90.5 -221t90.5 -221.5t219.5 -91.5zM417 413q58 0 92 -35.5t34 -89.5
q0 -59 -41 -94.5t-108 -35.5q-64 0 -104.5 36t-40.5 102q0 53 53 130l84 122h99l-112 -144q16 9 44 9zM398 225q32 0 50 17.5t18 43.5q0 27 -19 44.5t-51 17.5q-31 0 -50 -17.5t-19 -44.5q0 -25 19 -43t52 -18z" />
    <glyph glyph-name="uni2786.ss01" horiz-adv-x="803" 
d="M401 -10q-149 0 -254.5 106t-105.5 254t105.5 254t254.5 106t255 -106t106 -254t-106 -254t-255 -106zM401 37q130 0 220.5 91.5t90.5 221.5t-90.5 221t-220.5 91q-129 0 -219.5 -91t-90.5 -221t90.5 -221.5t219.5 -91.5zM272 532h277v-57q-62 -55 -102 -139t-42 -189
h-83q2 108 40 193.5t78 121.5h-168v70z" />
    <glyph glyph-name="uni2787.ss01" horiz-adv-x="803" 
d="M401 -10q-149 0 -254.5 106t-105.5 254t105.5 254t254.5 106t255 -106t106 -254t-106 -254t-255 -106zM401 37q130 0 220.5 91.5t90.5 221.5t-90.5 221t-220.5 91q-129 0 -219.5 -91t-90.5 -221t90.5 -221.5t219.5 -91.5zM483 368q34 -9 56 -35.5t22 -60.5
q0 -55 -44 -85.5t-117 -30.5t-116 30.5t-43 85.5q0 36 23.5 61.5t55.5 34.5v6q-55 23 -55 73q0 45 37.5 74.5t99.5 29.5t99.5 -28t37.5 -73q0 -25 -16 -45.5t-40 -30.5v-6zM401 490q-27 0 -44 -12.5t-17 -33.5q0 -22 18 -34.5t42 -12.5q25 0 43.5 12.5t18.5 34.5
q0 21 -17 33.5t-44 12.5zM401 219q35 0 54 14.5t19 39.5q0 24 -19.5 41t-54.5 17q-34 0 -52.5 -17t-18.5 -42q0 -24 18.5 -38.5t53.5 -14.5z" />
    <glyph glyph-name="uni2788.ss01" horiz-adv-x="803" 
d="M401 -10q-149 0 -254.5 106t-105.5 254t105.5 254t254.5 106t255 -106t106 -254t-106 -254t-255 -106zM401 37q130 0 220.5 91.5t90.5 221.5t-90.5 221t-220.5 91q-129 0 -219.5 -91t-90.5 -221t90.5 -221.5t219.5 -91.5zM383 291q-58 0 -92 35.5t-34 89.5q0 59 41 94.5
t108 35.5q64 0 104.5 -36t40.5 -102q0 -53 -53 -130l-84 -122h-99l112 144q-16 -9 -44 -9zM402 479q-32 0 -50 -17.5t-18 -43.5q0 -27 19 -44.5t51 -17.5q31 0 50 17.5t19 44.5q0 25 -19 43t-52 18z" />
    <glyph glyph-name="uni2789.ss01" horiz-adv-x="803" 
d="M401 -10q-149 0 -254.5 106t-105.5 254t105.5 254t254.5 106t255 -106t106 -254t-106 -254t-255 -106zM401 37q130 0 220.5 91.5t90.5 221.5t-90.5 221t-220.5 91q-129 0 -219.5 -91t-90.5 -221t90.5 -221.5t219.5 -91.5zM493 189q-56 0 -91 43t-35 115t35 115t90 43
t90 -43.5t35 -115.5t-34.5 -114.5t-89.5 -42.5zM258 193v188h-74v63h43q35 0 35 35v22h71v-308h-75zM493 260q50 0 50 86q0 85 -51 85q-25 0 -37.5 -23.5t-12.5 -61.5t12.5 -62t38.5 -24z" />
    <glyph glyph-name="zero.case" horiz-adv-x="629" 
d="M316 -10q-126 0 -200.5 92t-74.5 268q0 175 74.5 267.5t200.5 92.5t199 -92t73 -269t-73 -268t-199 -91zM317 119q116 0 116 229q0 233 -117 233q-56 0 -87.5 -57t-31.5 -175q0 -230 120 -230z" />
    <glyph glyph-name="one.case" horiz-adv-x="375" 
d="M172 0v471h-150v112h70q51 0 73 21.5t22 63.5v32h128v-700h-143z" />
    <glyph glyph-name="two.case" horiz-adv-x="572" 
d="M362 284q-139 -80 -148 -158h312v-126h-485v50q0 202 193 307q84 46 117.5 76t33.5 70q0 38 -25 61.5t-69 23.5q-51 0 -77.5 -34t-28.5 -85h-143q0 42 15 83.5t44.5 77.5t80 58t114.5 22q103 0 169 -55.5t66 -152.5q0 -71 -43 -121t-126 -97z" />
    <glyph glyph-name="three.case" horiz-adv-x="584" 
d="M428 368q56 -20 85.5 -64t29.5 -104q0 -94 -66.5 -152t-180.5 -58q-120 0 -185 64.5t-70 168.5h133q3 -47 32.5 -77.5t81.5 -30.5q49 0 79.5 27.5t30.5 71.5t-31 72t-92 28h-34v112h38q48 0 76.5 22.5t28.5 60.5q0 37 -24 59.5t-64 22.5t-65 -23.5t-28 -62.5h-135
q0 89 68 147t166 58q91 0 152 -51t61 -132q0 -97 -87 -149v-10z" />
    <glyph glyph-name="four.case" horiz-adv-x="626" 
d="M603 264v-118h-122v-146h-132v146h-327v79l299 475h160v-436h122zM184 264h165v259h-12z" />
    <glyph glyph-name="five.case" horiz-adv-x="590" 
d="M320 467q104 0 166.5 -66.5t62.5 -170.5q0 -108 -72.5 -174t-182.5 -66q-112 0 -180.5 63.5t-72.5 164.5h140q5 -49 34 -78t77 -29q50 0 82 32t32 84q0 54 -30.5 90t-81.5 36q-34 0 -63.5 -16t-45.5 -45l-130 37l37 371h422v-130h-299l-15 -140q41 37 120 37z" />
    <glyph glyph-name="six.case" horiz-adv-x="579" 
d="M330 447q82 0 145 -62t63 -164q0 -104 -69.5 -167.5t-177.5 -63.5q-112 0 -181 66.5t-69 178.5q0 60 23 116t69 124l148 225h163l-198 -273q32 20 84 20zM292 105q51 0 82.5 34.5t31.5 85.5q0 50 -31.5 83t-82.5 33t-82.5 -33t-31.5 -83q0 -51 31.5 -85.5t82.5 -34.5z
" />
    <glyph glyph-name="seven.case" horiz-adv-x="537" 
d="M41 700h473v-105q-107 -105 -175.5 -255.5t-72.5 -339.5h-143q1 104 22.5 200.5t54.5 167.5t64 119.5t62 80.5h-285v132z" />
    <glyph glyph-name="eight.case" horiz-adv-x="597" 
d="M428 374q57 -19 92.5 -66.5t35.5 -112.5q0 -93 -71.5 -149t-186.5 -56q-117 0 -187 55.5t-70 148.5q0 70 38 117t92 63v10q-38 16 -64.5 55t-26.5 85q0 79 64.5 132.5t155.5 53.5q90 0 154 -51.5t64 -132.5q0 -48 -25 -85.5t-65 -56.5v-10zM300 599q-39 0 -65 -22.5
t-26 -59.5q0 -38 27 -61.5t63 -23.5t62.5 23.5t26.5 61.5q0 36 -25 59t-63 23zM299 106q48 0 79.5 27t31.5 71q0 43 -31 73.5t-80 30.5q-51 0 -81 -30.5t-30 -73.5q0 -44 31.5 -71t79.5 -27z" />
    <glyph glyph-name="nine.case" horiz-adv-x="579" 
d="M256 253q-82 0 -145 62t-63 164q0 104 69.5 167.5t177.5 63.5q112 0 181 -66.5t69 -178.5q0 -60 -23 -116t-69 -124l-148 -225h-163l198 273q-32 -20 -84 -20zM294 595q-51 0 -82.5 -34.5t-31.5 -85.5q0 -50 31.5 -83t82.5 -33t82.5 33t31.5 83q0 51 -31.5 85.5
t-82.5 34.5z" />
    <glyph glyph-name="zero.case.zero" horiz-adv-x="629" 
d="M316 710q126 0 199 -92t73 -269t-73 -268t-199 -91t-200.5 92t-74.5 268q0 175 74.5 267.5t200.5 92.5zM316 594q-62 0 -97 -60t-35 -185q0 -57 7 -95l198 312q-28 28 -73 28zM317 106q129 0 129 242q0 54 -6 95l-196 -310q28 -27 73 -27z" />
    <glyph glyph-name="zero.lf" horiz-adv-x="588" 
d="M296 -10q-117 0 -186 84.5t-69 246.5q0 161 68.5 245.5t185.5 84.5t184 -84.5t67 -246.5t-67 -246t-183 -84zM296 113q102 0 102 206q0 209 -103 209q-105 0 -105 -208q0 -207 106 -207z" />
    <glyph glyph-name="one.lf" horiz-adv-x="357" 
d="M161 0v426h-139v107h65q89 0 89 78v29h121v-640h-136z" />
    <glyph glyph-name="two.lf" horiz-adv-x="536" 
d="M335 253q-61 -39 -90 -68t-35 -63h279v-122h-448v47q0 170 168 276q99 62 119 81q29 27 29 58q0 33 -22.5 53t-61.5 20q-45 0 -68.5 -30t-25.5 -75h-137q0 85 60.5 153t174.5 68q95 0 156 -50.5t61 -140.5q0 -65 -39.5 -111.5t-119.5 -95.5z" />
    <glyph glyph-name="three.lf" horiz-adv-x="546" 
d="M400 338q51 -19 78 -59t27 -95q0 -86 -61.5 -140t-166.5 -54q-112 0 -172 60t-64 156h126q3 -42 29 -69t73 -27q44 0 71 24.5t27 63.5q0 38 -28 63t-83 25h-31v107h36q43 0 68 19.5t25 53.5q0 32 -21 52t-56 20q-36 0 -57.5 -20.5t-25.5 -55.5h-128q0 83 63 136t154 53
q83 0 140 -46.5t57 -121.5q0 -89 -80 -136v-9z" />
    <glyph glyph-name="four.lf" horiz-adv-x="583" 
d="M560 245v-112h-112v-133h-126v133h-300v74l275 434h151v-396h112zM178 245h144v233h-12z" />
    <glyph glyph-name="five.lf" horiz-adv-x="552" 
d="M300 428q96 0 153.5 -60.5t57.5 -157.5q0 -99 -67 -159.5t-169 -60.5q-103 0 -166.5 58t-67.5 151h133q5 -43 31 -68.5t69 -25.5q44 0 72 28.5t28 75.5t-27 78.5t-72 31.5q-66 0 -96 -53l-124 35l33 340h391v-123h-273l-13 -123q37 33 107 33z" />
    <glyph glyph-name="six.lf" horiz-adv-x="541" 
d="M308 409q76 0 134 -57t58 -150q0 -96 -64.5 -154t-163.5 -58q-104 0 -167.5 61t-63.5 164q0 96 84 222l136 204h156l-183 -249q26 17 74 17zM273 99q45 0 73 31t28 76q0 44 -28 74t-73 30q-46 0 -74 -30t-28 -74q0 -45 28.5 -76t73.5 -31z" />
    <glyph glyph-name="seven.lf" horiz-adv-x="500" 
d="M41 641h436v-101q-97 -94 -159 -230.5t-65 -309.5h-137q1 95 20.5 183.5t50 153t58 107.5t53.5 71h-257v126z" />
    <glyph glyph-name="eight.lf" horiz-adv-x="559" 
d="M400 343q53 -18 85.5 -61t32.5 -102q0 -87 -67 -138.5t-173 -51.5q-107 0 -172 51t-65 138q0 63 34.5 106t84.5 58v9q-35 16 -58.5 51t-23.5 78q0 72 59.5 121t143.5 49q83 0 142 -47t59 -122q0 -44 -23 -78.5t-59 -51.5v-9zM280 546q-34 0 -56.5 -20t-22.5 -53
q0 -34 23 -54.5t55 -20.5q33 0 56 20.5t23 54.5q0 32 -22 52.5t-56 20.5zM280 100q42 0 70 24t28 63t-27.5 66t-71.5 27t-71 -27t-27 -66t28 -63t71 -24z" />
    <glyph glyph-name="nine.lf" horiz-adv-x="541" 
d="M240 224q-76 0 -134 57t-58 150q0 96 64.5 154t163.5 58q104 0 167.5 -61t63.5 -164q0 -96 -84 -222l-136 -204h-156l183 249q-26 -17 -74 -17zM275 534q-45 0 -73 -31t-28 -76q0 -44 28 -74t73 -30q46 0 74 30t28 74q0 45 -28.5 76t-73.5 31z" />
    <glyph glyph-name="zero.lf.case" horiz-adv-x="629" 
d="M316 -10q-126 0 -200.5 92t-74.5 268q0 175 74.5 267.5t200.5 92.5t199 -92t73 -269t-73 -268t-199 -91zM317 119q116 0 116 229q0 233 -117 233q-56 0 -87.5 -57t-31.5 -175q0 -230 120 -230z" />
    <glyph glyph-name="one.lf.case" horiz-adv-x="375" 
d="M172 0v471h-150v112h70q51 0 73 21.5t22 63.5v32h128v-700h-143z" />
    <glyph glyph-name="two.lf.case" horiz-adv-x="572" 
d="M362 284q-139 -80 -148 -158h312v-126h-485v50q0 202 193 307q84 46 117.5 76t33.5 70q0 38 -25 61.5t-69 23.5q-51 0 -77.5 -34t-28.5 -85h-143q0 42 15 83.5t44.5 77.5t80 58t114.5 22q103 0 169 -55.5t66 -152.5q0 -71 -43 -121t-126 -97z" />
    <glyph glyph-name="three.lf.case" horiz-adv-x="584" 
d="M428 368q56 -20 85.5 -64t29.5 -104q0 -94 -66.5 -152t-180.5 -58q-120 0 -185 64.5t-70 168.5h133q3 -47 32.5 -77.5t81.5 -30.5q49 0 79.5 27.5t30.5 71.5t-31 72t-92 28h-34v112h38q48 0 76.5 22.5t28.5 60.5q0 37 -24 59.5t-64 22.5t-65 -23.5t-28 -62.5h-135
q0 89 68 147t166 58q91 0 152 -51t61 -132q0 -97 -87 -149v-10z" />
    <glyph glyph-name="four.lf.case" horiz-adv-x="626" 
d="M603 264v-118h-122v-146h-132v146h-327v79l299 475h160v-436h122zM184 264h165v259h-12z" />
    <glyph glyph-name="five.lf.case" horiz-adv-x="590" 
d="M320 467q104 0 166.5 -66.5t62.5 -170.5q0 -108 -72.5 -174t-182.5 -66q-112 0 -180.5 63.5t-72.5 164.5h140q5 -49 34 -78t77 -29q50 0 82 32t32 84q0 54 -30.5 90t-81.5 36q-34 0 -63.5 -16t-45.5 -45l-130 37l37 371h422v-130h-299l-15 -140q41 37 120 37z" />
    <glyph glyph-name="six.lf.case" horiz-adv-x="579" 
d="M330 447q82 0 145 -62t63 -164q0 -104 -69.5 -167.5t-177.5 -63.5q-112 0 -181 66.5t-69 178.5q0 60 23 116t69 124l148 225h163l-198 -273q32 20 84 20zM292 105q51 0 82.5 34.5t31.5 85.5q0 50 -31.5 83t-82.5 33t-82.5 -33t-31.5 -83q0 -51 31.5 -85.5t82.5 -34.5z
" />
    <glyph glyph-name="seven.lf.case" horiz-adv-x="537" 
d="M41 700h473v-105q-107 -105 -175.5 -255.5t-72.5 -339.5h-143q1 104 22.5 200.5t54.5 167.5t64 119.5t62 80.5h-285v132z" />
    <glyph glyph-name="eight.lf.case" horiz-adv-x="597" 
d="M428 374q57 -19 92.5 -66.5t35.5 -112.5q0 -93 -71.5 -149t-186.5 -56q-117 0 -187 55.5t-70 148.5q0 70 38 117t92 63v10q-38 16 -64.5 55t-26.5 85q0 79 64.5 132.5t155.5 53.5q90 0 154 -51.5t64 -132.5q0 -48 -25 -85.5t-65 -56.5v-10zM300 599q-39 0 -65 -22.5
t-26 -59.5q0 -38 27 -61.5t63 -23.5t62.5 23.5t26.5 61.5q0 36 -25 59t-63 23zM299 106q48 0 79.5 27t31.5 71q0 43 -31 73.5t-80 30.5q-51 0 -81 -30.5t-30 -73.5q0 -44 31.5 -71t79.5 -27z" />
    <glyph glyph-name="nine.lf.case" horiz-adv-x="579" 
d="M256 253q-82 0 -145 62t-63 164q0 104 69.5 167.5t177.5 63.5q112 0 181 -66.5t69 -178.5q0 -60 -23 -116t-69 -124l-148 -225h-163l198 273q-32 -20 -84 -20zM294 595q-51 0 -82.5 -34.5t-31.5 -85.5q0 -50 31.5 -83t82.5 -33t82.5 33t31.5 83q0 51 -31.5 85.5
t-82.5 34.5z" />
    <glyph glyph-name="zero.tf" horiz-adv-x="565" 
d="M284 651q117 0 184 -84.5t67 -246.5t-67 -246t-183 -84q-117 0 -186 84.5t-69 246.5q0 161 68.5 245.5t185.5 84.5zM285 538q-119 0 -119 -218q0 -42 5 -82l176 278q-25 22 -62 22zM286 103q114 0 114 216q0 44 -5 86l-176 -278q29 -24 67 -24z" />
    <glyph glyph-name="one.tf" horiz-adv-x="565" 
d="M374 108h138v-108h-442v108h168v318h-139v107h65q89 0 89 78v29h121v-532z" />
    <glyph glyph-name="two.tf" horiz-adv-x="565" 
d="M347 253q-61 -39 -90 -68t-35 -63h279v-122h-448v47q0 170 168 276q99 62 119 81q29 27 29 58q0 33 -22.5 53t-61.5 20q-45 0 -68.5 -30t-25.5 -75h-137q0 85 60.5 153t174.5 68q95 0 156 -50.5t61 -140.5q0 -65 -39.5 -111.5t-119.5 -95.5z" />
    <glyph glyph-name="three.tf" horiz-adv-x="565" 
d="M409 338q51 -19 78 -59t27 -95q0 -86 -61.5 -140t-166.5 -54q-112 0 -172 60t-64 156h126q3 -42 29 -69t73 -27q44 0 71 24.5t27 63.5q0 38 -28 63t-83 25h-31v107h36q43 0 68 19.5t25 53.5q0 32 -21 52t-56 20q-36 0 -57.5 -20.5t-25.5 -55.5h-128q0 83 63 136t154 53
q83 0 140 -46.5t57 -121.5q0 -89 -80 -136v-9z" />
    <glyph glyph-name="four.tf" horiz-adv-x="565" 
d="M547 245v-112h-112v-133h-126v133h-300v74l275 434h151v-396h112zM165 245h144v233h-12z" />
    <glyph glyph-name="five.tf" horiz-adv-x="565" 
d="M315 428q96 0 153.5 -60.5t57.5 -157.5q0 -99 -67 -159.5t-169 -60.5q-103 0 -166.5 58t-67.5 151h133q5 -43 31 -68.5t69 -25.5q44 0 72 28.5t28 75.5t-27 78.5t-72 31.5q-66 0 -96 -53l-124 35l33 340h391v-123h-273l-13 -123q37 33 107 33z" />
    <glyph glyph-name="six.tf" horiz-adv-x="565" 
d="M320 409q76 0 134 -57t58 -150q0 -96 -64.5 -154t-163.5 -58q-104 0 -167.5 61t-63.5 164q0 96 84 222l136 204h156l-183 -249q26 17 74 17zM285 99q45 0 73 31t28 76q0 44 -28 74t-73 30q-46 0 -74 -30t-28 -74q0 -45 28.5 -76t73.5 -31z" />
    <glyph glyph-name="seven.tf" horiz-adv-x="565" 
d="M72 641h436v-101q-97 -94 -159 -230.5t-65 -309.5h-137q1 95 20.5 183.5t50 153t58 107.5t53.5 71h-257v126z" />
    <glyph glyph-name="eight.tf" horiz-adv-x="565" 
d="M403 343q53 -18 85.5 -61t32.5 -102q0 -87 -67 -138.5t-173 -51.5q-107 0 -172 51t-65 138q0 63 34.5 106t84.5 58v9q-35 16 -58.5 51t-23.5 78q0 72 59.5 121t143.5 49q83 0 142 -47t59 -122q0 -44 -23 -78.5t-59 -51.5v-9zM283 546q-34 0 -56.5 -20t-22.5 -53
q0 -34 23 -54.5t55 -20.5q33 0 56 20.5t23 54.5q0 32 -22 52.5t-56 20.5zM283 100q42 0 70 24t28 63t-27.5 66t-71.5 27t-71 -27t-27 -66t28 -63t71 -24z" />
    <glyph glyph-name="nine.tf" horiz-adv-x="565" 
d="M243 224q-76 0 -134 57t-58 150q0 96 64.5 154t163.5 58q104 0 167.5 -61t63.5 -164q0 -96 -84 -222l-136 -204h-156l183 249q-26 -17 -74 -17zM278 534q-45 0 -73 -31t-28 -76q0 -44 28 -74t73 -30q46 0 74 30t28 74q0 45 -28.5 76t-73.5 31z" />
    <glyph glyph-name="zero.tf.case" horiz-adv-x="592" 
d="M297 710q126 0 199 -92t73 -269t-73 -268t-199 -91t-200.5 92t-74.5 268q0 175 74.5 267.5t200.5 92.5zM297 594q-62 0 -97 -60t-35 -185q0 -57 7 -95l198 312q-28 28 -73 28zM298 106q129 0 129 242q0 54 -6 95l-196 -310q28 -27 73 -27z" />
    <glyph glyph-name="one.tf.case" horiz-adv-x="592" 
d="M392 114h149v-114h-476v114h184v357h-150v112h70q51 0 73 21.5t22 63.5v32h128v-586z" />
    <glyph glyph-name="two.tf.case" horiz-adv-x="592" 
d="M376 284q-139 -80 -148 -158h312v-126h-485v50q0 202 193 307q84 46 117.5 76t33.5 70q0 38 -25 61.5t-69 23.5q-51 0 -77.5 -34t-28.5 -85h-143q0 42 15 83.5t44.5 77.5t80 58t114.5 22q103 0 169 -55.5t66 -152.5q0 -71 -43 -121t-126 -97z" />
    <glyph glyph-name="three.tf.case" horiz-adv-x="592" 
d="M430 368q56 -20 85.5 -64t29.5 -104q0 -94 -66.5 -152t-180.5 -58q-120 0 -185 64.5t-70 168.5h133q3 -47 32.5 -77.5t81.5 -30.5q49 0 79.5 27.5t30.5 71.5t-31 72t-92 28h-34v112h38q48 0 76.5 22.5t28.5 60.5q0 37 -24 59.5t-64 22.5t-65 -23.5t-28 -62.5h-135
q0 89 68 147t166 58q91 0 152 -51t61 -132q0 -97 -87 -149v-10z" />
    <glyph glyph-name="four.tf.case" horiz-adv-x="592" 
d="M585 264v-118h-122v-146h-132v146h-327v79l299 475h160v-436h122zM166 264h165v259h-12z" />
    <glyph glyph-name="five.tf.case" horiz-adv-x="592" 
d="M331 467q104 0 166.5 -66.5t62.5 -170.5q0 -108 -72.5 -174t-182.5 -66q-112 0 -180.5 63.5t-72.5 164.5h140q5 -49 34 -78t77 -29q50 0 82 32t32 84q0 54 -30.5 90t-81.5 36q-34 0 -63.5 -16t-45.5 -45l-130 37l37 371h422v-130h-299l-15 -140q41 37 120 37z" />
    <glyph glyph-name="six.tf.case" horiz-adv-x="592" 
d="M338 447q82 0 145 -62t63 -164q0 -104 -69.5 -167.5t-177.5 -63.5q-112 0 -181 66.5t-69 178.5q0 60 23 116t69 124l148 225h163l-198 -273q32 20 84 20zM300 105q51 0 82.5 34.5t31.5 85.5q0 50 -31.5 83t-82.5 33t-82.5 -33t-31.5 -83q0 -51 31.5 -85.5t82.5 -34.5z
" />
    <glyph glyph-name="seven.tf.case" horiz-adv-x="592" 
d="M64 700h473v-105q-107 -105 -175.5 -255.5t-72.5 -339.5h-143q1 104 22.5 200.5t54.5 167.5t64 119.5t62 80.5h-285v132z" />
    <glyph glyph-name="eight.tf.case" horiz-adv-x="592" 
d="M428 374q57 -19 92.5 -66.5t35.5 -112.5q0 -93 -71.5 -149t-186.5 -56q-117 0 -187 55.5t-70 148.5q0 70 38 117t92 63v10q-38 16 -64.5 55t-26.5 85q0 79 64.5 132.5t155.5 53.5q90 0 154 -51.5t64 -132.5q0 -48 -25 -85.5t-65 -56.5v-10zM300 599q-39 0 -65 -22.5
t-26 -59.5q0 -38 27 -61.5t63 -23.5t62.5 23.5t26.5 61.5q0 36 -25 59t-63 23zM299 106q48 0 79.5 27t31.5 71q0 43 -31 73.5t-80 30.5q-51 0 -81 -30.5t-30 -73.5q0 -44 31.5 -71t79.5 -27z" />
    <glyph glyph-name="nine.tf.case" horiz-adv-x="592" 
d="M261 253q-82 0 -145 62t-63 164q0 104 69.5 167.5t177.5 63.5q112 0 181 -66.5t69 -178.5q0 -60 -23 -116t-69 -124l-148 -225h-163l198 273q-32 -20 -84 -20zM299 595q-51 0 -82.5 -34.5t-31.5 -85.5q0 -50 31.5 -83t82.5 -33t82.5 33t31.5 83q0 51 -31.5 85.5
t-82.5 34.5z" />
    <glyph glyph-name="zero.zero" horiz-adv-x="588" 
d="M295 651q117 0 184 -84.5t67 -246.5t-67 -246t-183 -84q-117 0 -186 84.5t-69 246.5q0 161 68.5 245.5t185.5 84.5zM296 538q-119 0 -119 -218q0 -42 5 -82l176 278q-25 22 -62 22zM297 103q114 0 114 216q0 44 -5 86l-176 -278q28 -24 67 -24z" />
    <glyph glyph-name="zero.dnom" horiz-adv-x="372" 
d="M187 -4q-69 0 -112.5 52.5t-43.5 143.5t43.5 144t111.5 53t111.5 -53.5t43.5 -144.5q0 -90 -43 -142.5t-111 -52.5zM187 80q33 0 50.5 30t17.5 81q0 50 -17.5 81t-51.5 31t-51 -30.5t-17 -81.5t17 -81t52 -30z" />
    <glyph glyph-name="one.dnom" horiz-adv-x="257" 
d="M119 0v240h-93v74h54q43 0 43 44v27h83v-385h-87z" />
    <glyph glyph-name="two.dnom" horiz-adv-x="338" 
d="M212 156q-85 -48 -86 -83h178v-73h-273v28q0 103 95 162q9 6 29.5 17t28 16t18.5 13.5t14.5 16.5t3.5 18q0 19 -12.5 31.5t-34.5 12.5q-26 0 -40.5 -16.5t-14.5 -41.5h-86q0 51 37.5 92t109.5 41q53 0 90.5 -30.5t37.5 -80.5q0 -31 -17 -57.5t-33.5 -38t-44.5 -27.5z" />
    <glyph glyph-name="three.dnom" horiz-adv-x="346" 
d="M245 202q32 -9 51 -34t19 -57q0 -52 -39 -84t-110 -32t-106.5 36.5t-38.5 94.5h80q7 -62 68 -62q29 0 46 14t17 37q0 26 -20.5 40.5t-56.5 14.5h-16v67h21q28 0 44 11t16 30q0 20 -13.5 31t-35.5 11q-46 0 -53 -44h-81q0 50 38 82t97 32q56 0 93 -28t37 -71
q0 -53 -57 -82v-7z" />
    <glyph glyph-name="four.dnom" horiz-adv-x="374" 
d="M353 149v-68h-67v-81h-75v81h-185v43l152 261h108v-236h67zM118 149h93v145h-7z" />
    <glyph glyph-name="five.dnom" horiz-adv-x="352" 
d="M188 257q62 0 97.5 -37.5t35.5 -94.5q0 -59 -40.5 -94.5t-106.5 -35.5q-69 0 -106 37t-37 88h80q2 -25 20.5 -41t44.5 -16q29 0 46.5 18t17.5 45q0 28 -17 48t-48 20q-37 0 -60 -34l-75 21l20 204h242v-71h-173l-8 -75q22 18 67 18z" />
    <glyph glyph-name="six.dnom" horiz-adv-x="356" 
d="M199 250q58 0 92 -35.5t34 -89.5q0 -59 -41 -94.5t-108 -35.5q-64 0 -104.5 36t-40.5 102q0 53 53 130l84 122h99l-112 -144q16 9 44 9zM180 62q32 0 50 17.5t18 43.5q0 27 -19 44.5t-51 17.5q-31 0 -50 -17.5t-19 -44.5q0 -25 19 -43t52 -18z" />
    <glyph glyph-name="seven.dnom" horiz-adv-x="324" 
d="M26 385h277v-57q-62 -55 -102 -139t-42 -189h-83q2 108 40 193.5t78 121.5h-168v70z" />
    <glyph glyph-name="eight.dnom" horiz-adv-x="382" 
d="M273 207q34 -9 56 -35.5t22 -60.5q0 -55 -44 -85.5t-117 -30.5t-116 30.5t-43 85.5q0 36 23.5 61.5t55.5 34.5v6q-55 23 -55 73q0 45 37.5 74.5t99.5 29.5t99.5 -28t37.5 -73q0 -25 -16 -45.5t-40 -30.5v-6zM191 329q-27 0 -44 -12.5t-17 -33.5q0 -22 18 -34.5t42 -12.5
q25 0 43.5 12.5t18.5 34.5q0 21 -17 33.5t-44 12.5zM191 58q35 0 54 14.5t19 39.5q0 24 -19.5 41t-54.5 17q-34 0 -52.5 -17t-18.5 -42q0 -23 18.5 -38t53.5 -15z" />
    <glyph glyph-name="nine.dnom" horiz-adv-x="356" 
d="M157 135q-58 0 -92 35.5t-34 89.5q0 59 41 94.5t108 35.5q64 0 104.5 -36t40.5 -102q0 -53 -53 -130l-84 -122h-99l112 144q-16 -9 -44 -9zM176 323q-32 0 -50 -17.5t-18 -43.5q0 -27 19 -44.5t51 -17.5q31 0 50 17.5t19 44.5q0 25 -19 43t-52 18z" />
    <glyph glyph-name="zero.numr" horiz-adv-x="372" 
d="M187 251q-69 0 -112.5 52.5t-43.5 143.5t43.5 144t111.5 53t111.5 -53.5t43.5 -144.5q0 -90 -43 -142.5t-111 -52.5zM187 335q33 0 50.5 30t17.5 81q0 50 -17.5 81t-51.5 31t-51 -30.5t-17 -81.5t17 -81t52 -30z" />
    <glyph glyph-name="one.numr" horiz-adv-x="257" 
d="M119 255v240h-93v74h54q43 0 43 44v27h83v-385h-87z" />
    <glyph glyph-name="two.numr" horiz-adv-x="338" 
d="M212 411q-85 -48 -86 -83h178v-73h-273v28q0 103 95 162q9 6 29.5 17t28 16t18.5 13.5t14.5 16.5t3.5 18q0 19 -12.5 31.5t-34.5 12.5q-26 0 -40.5 -16.5t-14.5 -41.5h-86q0 51 37.5 92t109.5 41q53 0 90.5 -30.5t37.5 -80.5q0 -31 -17 -57.5t-33.5 -38t-44.5 -27.5z" />
    <glyph glyph-name="three.numr" horiz-adv-x="346" 
d="M245 457q32 -9 51 -34t19 -57q0 -52 -39 -84t-110 -32t-106.5 36.5t-38.5 94.5h80q7 -62 68 -62q29 0 46 14t17 37q0 26 -20.5 40.5t-56.5 14.5h-16v67h21q28 0 44 11t16 30q0 20 -13.5 31t-35.5 11q-46 0 -53 -44h-81q0 50 38 82t97 32q56 0 93 -28t37 -71
q0 -54 -57 -82v-7z" />
    <glyph glyph-name="four.numr" horiz-adv-x="374" 
d="M353 404v-68h-67v-81h-75v81h-185v43l152 261h108v-236h67zM118 404h93v145h-7z" />
    <glyph glyph-name="five.numr" horiz-adv-x="352" 
d="M188 509q62 0 97.5 -37.5t35.5 -94.5q0 -59 -40.5 -94.5t-106.5 -35.5q-69 0 -106 37t-37 88h80q2 -25 20.5 -41t44.5 -16q29 0 46.5 18t17.5 45q0 28 -17 48t-48 20q-37 0 -60 -34l-75 21l20 204h242v-71h-173l-8 -75q22 18 67 18z" />
    <glyph glyph-name="six.numr" horiz-adv-x="356" 
d="M199 505q58 0 92 -35.5t34 -89.5q0 -59 -41 -94.5t-108 -35.5q-64 0 -104.5 36t-40.5 102q0 53 53 130l84 122h99l-112 -144q16 9 44 9zM180 317q32 0 50 17.5t18 43.5q0 27 -19 44.5t-51 17.5q-31 0 -50 -17.5t-19 -44.5q0 -25 19 -43t52 -18z" />
    <glyph glyph-name="seven.numr" horiz-adv-x="324" 
d="M26 640h277v-57q-62 -55 -102 -139t-42 -189h-83q2 108 40 193.5t78 121.5h-168v70z" />
    <glyph glyph-name="eight.numr" horiz-adv-x="382" 
d="M273 462q34 -9 56 -35.5t22 -60.5q0 -55 -44 -85.5t-117 -30.5t-116 30.5t-43 85.5q0 36 23.5 61.5t55.5 34.5v6q-55 23 -55 73q0 45 37.5 74.5t99.5 29.5t99.5 -28t37.5 -73q0 -25 -16 -45.5t-40 -30.5v-6zM191 584q-27 0 -44 -12.5t-17 -33.5q0 -22 18 -34.5t42 -12.5
q25 0 43.5 12.5t18.5 34.5q0 21 -17 33.5t-44 12.5zM191 313q35 0 54 14.5t19 39.5q0 24 -19.5 41t-54.5 17q-34 0 -52.5 -17t-18.5 -42q0 -24 18.5 -38.5t53.5 -14.5z" />
    <glyph glyph-name="nine.numr" horiz-adv-x="356" 
d="M157 391q-58 0 -92 35.5t-34 89.5q0 59 41 94.5t108 35.5q64 0 104.5 -36t40.5 -102q0 -53 -53 -130l-84 -122h-99l112 144q-16 -9 -44 -9zM176 579q-32 0 -50 -17.5t-18 -43.5q0 -27 19 -44.5t51 -17.5q31 0 50 17.5t19 44.5q0 25 -19 43t-52 18z" />
    <glyph glyph-name="fraction.ss01" horiz-adv-x="252" 
d="M401 640l-498 -640h-53l498 640h53z" />
    <glyph glyph-name="onehalf.ss01" horiz-adv-x="743" 
d="M119 255v240h-93v74h54q43 0 43 44v27h83v-385h-87zM627 640l-498 -640h-53l498 640h53zM617 156q-85 -48 -86 -83h178v-73h-273v28q0 103 95 162q9 6 29.5 17t28 16t18.5 13.5t14.5 16.5t3.5 18q0 19 -12.5 31.5t-34.5 12.5q-26 0 -40.5 -16.5t-14.5 -41.5h-86
q0 51 37.5 92t109.5 41q53 0 90.5 -30.5t37.5 -80.5q0 -31 -17 -57.5t-33.5 -38t-44.5 -27.5z" />
    <glyph glyph-name="uni2153.ss01" horiz-adv-x="759" 
d="M119 255v240h-93v74h54q43 0 43 44v27h83v-385h-87zM627 640l-498 -640h-53l498 640h53zM658 202q32 -9 51 -34t19 -57q0 -52 -39 -84t-110 -32t-106.5 36.5t-38.5 94.5h80q7 -62 68 -62q29 0 46 14t17 37q0 26 -20.5 40.5t-56.5 14.5h-16v67h21q28 0 44 11t16 30
q0 20 -13.5 31t-35.5 11q-46 0 -53 -44h-81q0 50 38 82t97 32q56 0 93 -28t37 -71q0 -53 -57 -82v-7z" />
    <glyph glyph-name="uni2154.ss01" horiz-adv-x="852" 
d="M212 411q-85 -48 -86 -83h178v-73h-273v28q0 103 95 162q9 6 29.5 17t28 16t18.5 13.5t14.5 16.5t3.5 18q0 19 -12.5 31.5t-34.5 12.5q-26 0 -40.5 -16.5t-14.5 -41.5h-86q0 51 37.5 92t109.5 41q53 0 90.5 -30.5t37.5 -80.5q0 -31 -17 -57.5t-33.5 -38t-44.5 -27.5z
M720 640l-498 -640h-53l498 640h53zM751 202q32 -9 51 -34t19 -57q0 -52 -39 -84t-110 -32t-106.5 36.5t-38.5 94.5h80q7 -62 68 -62q29 0 46 14t17 37q0 26 -20.5 40.5t-56.5 14.5h-16v67h21q28 0 44 11t16 30q0 20 -13.5 31t-35.5 11q-46 0 -53 -44h-81q0 50 38 82t97 32
q56 0 93 -28t37 -71q0 -53 -57 -82v-7z" />
    <glyph glyph-name="onequarter.ss01" horiz-adv-x="721" 
d="M119 255v240h-93v74h54q43 0 43 44v27h83v-385h-87zM627 640l-498 -640h-53l498 640h53zM700 149v-68h-67v-81h-75v81h-185v43l152 261h108v-236h67zM465 149h93v145h-7z" />
    <glyph glyph-name="threequarters.ss01" horiz-adv-x="785" 
d="M245 457q32 -9 51 -34t19 -57q0 -52 -39 -84t-110 -32t-106.5 36.5t-38.5 94.5h80q7 -62 68 -62q29 0 46 14t17 37q0 26 -20.5 40.5t-56.5 14.5h-16v67h21q28 0 44 11t16 30q0 20 -13.5 31t-35.5 11q-46 0 -53 -44h-81q0 50 38 82t97 32q56 0 93 -28t37 -71
q0 -54 -57 -82v-7zM691 640l-498 -640h-53l498 640h53zM764 149v-68h-67v-81h-75v81h-185v43l152 261h108v-236h67zM529 149h93v145h-7z" />
    </font>
</defs>
</svg>
