<?xml version="1.0" standalone="no"?>
<!DOCTYPE svg PUBLIC "-//W3C//DTD SVG 1.1//EN" "http://www.w3.org/Graphics/SVG/1.1/DTD/svg11.dtd" >
<svg xmlns="http://www.w3.org/2000/svg" xmlns:xlink="http://www.w3.org/1999/xlink" version="1.1">
<metadata>
Created by FontForge 20170731 at Tue Oct 10 12:45:32 2017
 By Aleksey,,,
(c) TIGHTYPE 2017
</metadata>
<defs>
<font id="Moderat-Medium" horiz-adv-x="822" >
  <font-face 
    font-family="Moderat Medium"
    font-weight="500"
    font-stretch="normal"
    units-per-em="1000"
    panose-1="0 0 6 0 0 0 0 0 0 0"
    ascent="800"
    descent="-200"
    x-height="500"
    cap-height="700"
    bbox="-144 -318 1137 969"
    underline-thickness="50"
    underline-position="-200"
    unicode-range="U+0020-FB02"
  />
<missing-glyph 
d="M771 350q0 -150 -105 -255t-255 -105t-255 106t-105 254q0 149 105.5 254.5t254.5 105.5q151 0 255.5 -105.5t104.5 -254.5zM223 533v-45h44v-128h46v128h44v45h-134zM465 533v-45h45v-128h45v128h45v45h-135zM411 81q109 0 187 76t81 183l-46 8q0 -92 -65 -156.5
t-157 -64.5q-91 0 -156 64.5t-65 156.5l-46 -8q3 -107 81 -183t186 -76z" />
    <glyph glyph-name="arrowleft" unicode="&#x3c;&#x2d;" horiz-adv-x="788" 
d="M759 357v-92h-579l200 -198l-66 -65l-295 305v10l295 304l66 -65l-202 -199h581z" />
    <glyph glyph-name="arrowright" unicode="&#x2d;&#x3e;" horiz-adv-x="787" 
d="M473 621l295 -304v-10l-295 -305l-66 65l200 198h-579v92h581l-202 199z" />
    <glyph glyph-name="fi" unicode="fi" horiz-adv-x="566" 
d="M501 500v-500h-103v416h-181v-416h-98v416h-91v84h91v71q0 64 36.5 101.5t102.5 37.5q39 0 69 -16l-22 -80q-18 9 -35 9q-53 0 -53 -60v-63h284zM450 571q-28 0 -48.5 20t-20.5 48t20.5 48t48.5 20t47.5 -20t19.5 -48t-19.5 -48t-47.5 -20z" />
    <glyph glyph-name="f_f" unicode="ff" horiz-adv-x="687" 
d="M511 551v-51h128v-84h-128v-416h-102v416h-187v-416h-102v416h-92v84h92v61q0 69 39.5 109t101.5 40q72 0 108 -36l-33 -79q-26 24 -58 24q-56 0 -56 -68v-51h187v61q0 69 39.5 109t101.5 40q72 0 108 -36l-33 -79q-26 24 -58 24q-56 0 -56 -68z" />
    <glyph glyph-name="f_f_i" unicode="ffi" horiz-adv-x="855" 
d="M790 500v-500h-103v416h-181v-416h-98v416h-186v-416h-102v416h-92v84h92v61q0 69 39.5 109t101.5 40q72 0 108 -36l-33 -79q-26 24 -58 24q-56 0 -56 -68v-51h186v71q0 64 36.5 101.5t102.5 37.5q39 0 69 -16l-22 -80q-18 9 -35 9q-53 0 -53 -60v-63h284zM739 571
q-28 0 -48.5 20t-20.5 48t20.5 48t48.5 20t47.5 -20t19.5 -48t-19.5 -48t-47.5 -20z" />
    <glyph glyph-name="f_f_j" unicode="ffj" horiz-adv-x="853" 
d="M788 500v-561q0 -69 -39.5 -109t-101.5 -40q-72 0 -108 36l33 79q26 -24 58 -24q56 0 56 68v467h-180v-416h-98v416h-186v-416h-102v416h-92v84h92v61q0 69 39.5 109t101.5 40q72 0 108 -36l-33 -79q-26 24 -58 24q-56 0 -56 -68v-51h186v71q0 64 36.5 101.5t102.5 37.5
q39 0 69 -16l-22 -80q-18 9 -35 9q-53 0 -53 -60v-63h282zM737 571q-28 0 -48.5 20t-20.5 48t20.5 48t48.5 20t47.5 -20t19.5 -48t-19.5 -48t-47.5 -20z" />
    <glyph glyph-name="f_j" unicode="fj" horiz-adv-x="565" 
d="M499 500v-561q0 -69 -39.5 -109t-101.5 -40q-72 0 -108 36l33 79q26 -24 58 -24q56 0 56 68v467h-180v-416h-98v416h-91v84h91v71q0 64 36.5 101.5t102.5 37.5q39 0 69 -16l-22 -80q-18 9 -35 9q-53 0 -53 -60v-63h282zM448 571q-28 0 -48.5 20t-20.5 48t20.5 48t48.5 20
t47.5 -20t19.5 -48t-19.5 -48t-47.5 -20z" />
    <glyph glyph-name=".notdef" 
d="M771 350q0 -150 -105 -255t-255 -105t-255 106t-105 254q0 149 105.5 254.5t254.5 105.5q151 0 255.5 -105.5t104.5 -254.5zM223 533v-45h44v-128h46v128h44v45h-134zM465 533v-45h45v-128h45v128h45v45h-135zM411 81q109 0 187 76t81 183l-46 8q0 -92 -65 -156.5
t-157 -64.5q-91 0 -156 64.5t-65 156.5l-46 -8q3 -107 81 -183t186 -76z" />
    <glyph glyph-name=".null" horiz-adv-x="0" 
 />
    <glyph glyph-name="nonmarkingreturn" horiz-adv-x="333" 
 />
    <glyph glyph-name="space" unicode=" " horiz-adv-x="270" 
 />
    <glyph glyph-name="exclam" unicode="!" horiz-adv-x="244" 
d="M69 700h106l-16 -502h-73zM123 -7q-27 0 -47 19.5t-20 46.5t20 46.5t47 19.5t46.5 -19t19.5 -47q0 -27 -19.5 -46.5t-46.5 -19.5z" />
    <glyph glyph-name="quotedbl" unicode="&#x22;" horiz-adv-x="349" 
d="M133 606l-20 -142h-45l-21 143q-8 61 -8 71q0 27 14 42t37 15q24 0 38 -15t14 -42zM302 606l-20 -142h-45l-21 143q-8 61 -8 71q0 27 14 42t37 15q24 0 38 -15t14 -42z" />
    <glyph glyph-name="numbersign" unicode="#" horiz-adv-x="685" 
d="M655 436h-110l-34 -173h90v-87h-108l-35 -176h-94l35 176h-175l-35 -176h-93l35 176h-103v87h121l34 173h-100v85h117l36 179h93l-36 -179h175l36 179h94l-36 -179h93v-85zM417 263l34 173h-175l-34 -173h175z" />
    <glyph glyph-name="dollar" unicode="$" horiz-adv-x="566" 
d="M514 169q0 -76 -51 -122t-136 -55v-82h-86v83q-90 13 -140 68.5t-50 133.5h99q2 -39 26 -69.5t65 -43.5v211q-87 34 -129.5 72t-42.5 106q0 72 47 119.5t125 57.5v82h86v-84q80 -14 124.5 -67t44.5 -114h-99q0 32 -19 56t-51 35v-195q96 -37 141.5 -78.5t45.5 -113.5z
M170 476q0 -51 71 -82v166q-33 -9 -52 -31.5t-19 -52.5zM327 78q83 16 83 89q0 32 -19.5 52.5t-63.5 39.5v-181z" />
    <glyph glyph-name="percent" unicode="%" horiz-adv-x="770" 
d="M201 350q-61 0 -105.5 44t-44.5 106t44.5 106t105.5 44t105.5 -44.5t44.5 -105.5t-44.5 -105.5t-105.5 -44.5zM652 640l-434 -640h-106l433 640h107zM201 432q30 0 49 19.5t19 48.5t-19 48.5t-49 19.5t-49 -19.5t-19 -48.5t19 -48.5t49 -19.5zM569 -10q-61 0 -105.5 44
t-44.5 106t44.5 106t105.5 44t105.5 -44.5t44.5 -105.5t-44.5 -105.5t-105.5 -44.5zM569 72q30 0 49 19.5t19 48.5t-19 48.5t-49 19.5t-49 -19.5t-19 -48.5t19 -48.5t49 -19.5z" />
    <glyph glyph-name="ampersand" unicode="&#x26;" horiz-adv-x="663" 
d="M639 0h-109l-84 93q-46 -52 -94.5 -77.5t-110.5 -25.5q-82 0 -136 46.5t-54 120.5q0 65 34.5 110t110.5 101q-33 35 -47 51.5t-31.5 52t-17.5 70.5q0 70 51 119t131 49q82 0 134 -44.5t52 -111.5q0 -32 -9.5 -58t-33.5 -52t-42.5 -41.5t-59.5 -47.5l114 -128l75 108h105
l-104 -155l-15 -21zM285 623q-40 0 -64.5 -24t-24.5 -60q0 -30 16 -55.5t53 -64.5q41 29 59.5 44.5t34.5 38.5t16 46q0 34 -26 54.5t-64 20.5zM247 81q70 0 139 78l-131 144q-40 -31 -59 -47t-34 -39.5t-15 -48.5q0 -37 29 -62t71 -25z" />
    <glyph glyph-name="quotesingle" unicode="'" horiz-adv-x="180" 
d="M133 606l-20 -142h-45l-21 143q-8 61 -8 71q0 27 14 42t37 15q24 0 38 -15t14 -42z" />
    <glyph glyph-name="parenleft" unicode="(" horiz-adv-x="306" 
d="M287 -123l-65 -49q-77 85 -124 208.5t-47 273.5t47.5 274t123.5 209l65 -50q-143 -169 -143 -433q0 -262 143 -433z" />
    <glyph glyph-name="parenright" unicode=")" horiz-adv-x="306" 
d="M19 -123q143 171 143 433q0 264 -143 433l65 50q76 -85 123.5 -209t47.5 -274t-47 -273.5t-124 -208.5z" />
    <glyph glyph-name="asterisk" unicode="*" horiz-adv-x="390" 
d="M351 589l-99 -49l99 -49l-35 -62l-92 61l6 -110h-70l7 111l-93 -62l-35 62l99 49l-99 49l35 62l93 -62l-7 111h70l-6 -111l92 62z" />
    <glyph glyph-name="plus" unicode="+" horiz-adv-x="545" 
d="M494 323v-85h-175v-178h-92v178h-176v85h176v177h92v-177h175z" />
    <glyph glyph-name="comma" unicode="," horiz-adv-x="252" 
d="M125 126q33 0 51.5 -25t18.5 -64q0 -58 -32 -101.5t-75 -65.5l-24 30q60 47 61 95q-26 -4 -46 14t-20 50q0 30 18.5 48.5t47.5 18.5z" />
    <glyph glyph-name="hyphen" unicode="-" horiz-adv-x="417" 
d="M28 355h360v-88h-360v88z" />
    <glyph glyph-name="period" unicode="." horiz-adv-x="247" 
d="M124 -7q-27 0 -47 19.5t-20 46.5t20 46.5t47 19.5t46.5 -19t19.5 -47q0 -27 -19.5 -46.5t-46.5 -19.5z" />
    <glyph glyph-name="slash" unicode="/" horiz-adv-x="497" 
d="M478 750l-350 -800h-109l352 800h107z" />
    <glyph glyph-name="zero" unicode="0" horiz-adv-x="586" 
d="M294 -10q-111 0 -177 84.5t-66 246.5q0 161 66 245.5t177 84.5t176 -84.5t65 -246.5q0 -163 -64.5 -246.5t-176.5 -83.5zM295 88q58 0 91 58t33 174t-33.5 174.5t-91.5 58.5t-92 -58.5t-34 -174.5q0 -117 34 -174.5t93 -57.5z" />
    <glyph glyph-name="one" unicode="1" horiz-adv-x="335" 
d="M159 0v451h-131v85h62q80 0 80 74v30h96v-640h-107z" />
    <glyph glyph-name="two" unicode="2" horiz-adv-x="535" 
d="M323 258q-69 -44 -102.5 -81.5t-37.5 -79.5h296v-97h-428v41q0 164 172 273q99 63 121 85q31 31 31 67q0 41 -27 66.5t-74 25.5q-56 0 -83.5 -36.5t-30.5 -89.5h-108q0 84 57.5 151.5t166.5 67.5q91 0 149.5 -50t58.5 -135q0 -66 -40 -111t-121 -97z" />
    <glyph glyph-name="three" unicode="3" horiz-adv-x="547" 
d="M387 338q51 -17 80 -59t29 -98q0 -85 -59.5 -138t-160.5 -53q-105 0 -162.5 56.5t-62.5 148.5h101q4 -47 34.5 -78.5t84.5 -31.5q51 0 83 29t32 76q0 46 -31 75.5t-90 29.5h-32v88h34q47 0 75 24.5t28 64.5q0 39 -25.5 63.5t-68.5 24.5q-42 0 -68.5 -24.5t-30.5 -65.5
h-102q0 79 59.5 130t146.5 51q81 0 135 -46.5t54 -118.5q0 -94 -83 -141v-7z" />
    <glyph glyph-name="four" unicode="4" horiz-adv-x="567" 
d="M538 228v-89h-113v-139h-100v139h-297v64l272 437h125v-412h113zM149 228h176v286h-9z" />
    <glyph glyph-name="five" unicode="5" horiz-adv-x="551" 
d="M292 424q95 0 151.5 -60.5t56.5 -158.5q0 -96 -64 -155.5t-162 -59.5q-101 0 -160.5 57.5t-62.5 147.5h105q4 -52 34.5 -82.5t82.5 -30.5q53 0 86.5 33.5t33.5 89.5q0 57 -32.5 94t-85.5 37q-82 0 -117 -63l-95 27l34 340h371v-97h-279l-17 -160q45 41 120 41z" />
    <glyph glyph-name="six" unicode="6" horiz-adv-x="545" 
d="M304 406q74 0 132 -56.5t58 -148.5q0 -93 -62 -152t-159 -59q-100 0 -161 60.5t-61 160.5q0 54 20.5 104t61.5 112l137 213h125l-179 -257q31 23 88 23zM274 78q53 0 86 36.5t33 89.5q0 51 -32.5 85.5t-86.5 34.5t-86.5 -34.5t-32.5 -85.5q0 -53 33 -89.5t86 -36.5z" />
    <glyph glyph-name="seven" unicode="7" horiz-adv-x="506" 
d="M51 640h425v-76q-229 -217 -240 -564h-109q3 98 22.5 186t50 154.5t61.5 114.5t67 86h-277v99z" />
    <glyph glyph-name="eight" unicode="8" horiz-adv-x="558" 
d="M387 344q53 -18 86.5 -62.5t33.5 -104.5q0 -85 -64 -136t-165 -51q-103 0 -165 50.5t-62 135.5q0 63 35 107.5t85 60.5v7q-37 16 -62 52.5t-25 80.5q0 72 57.5 119.5t137.5 47.5q82 0 139 -46t57 -120q0 -46 -25 -81.5t-63 -52.5v-7zM279 566q-42 0 -69 -23.5t-27 -63.5
q0 -41 28.5 -66t66.5 -25q39 0 68 25t29 67q0 39 -27 62.5t-69 23.5zM278 79q50 0 84 29t34 75q0 45 -32.5 78t-85.5 33t-84.5 -33t-31.5 -78q0 -47 33 -75.5t83 -28.5z" />
    <glyph glyph-name="nine" unicode="9" horiz-adv-x="545" 
d="M249 229q-74 0 -132 56.5t-58 148.5q0 93 62 152t159 59q100 0 161 -60.5t61 -160.5q0 -54 -20.5 -104t-61.5 -112l-137 -213h-125l179 257q-31 -23 -88 -23zM279 557q-53 0 -86 -36.5t-33 -89.5q0 -51 32.5 -85.5t86.5 -34.5t86.5 34.5t32.5 85.5q0 53 -33 89.5
t-86 36.5z" />
    <glyph glyph-name="colon" unicode=":" horiz-adv-x="247" 
d="M124 375q-27 0 -47 19.5t-20 46.5t20 46.5t47 19.5t46.5 -19t19.5 -47q0 -27 -19.5 -46.5t-46.5 -19.5zM124 -7q-27 0 -47 19.5t-20 46.5t20 46.5t47 19.5t46.5 -19t19.5 -47q0 -27 -19.5 -46.5t-46.5 -19.5z" />
    <glyph glyph-name="semicolon" unicode=";" horiz-adv-x="256" 
d="M127 379q-27 0 -47 19.5t-20 46.5t20 46.5t47 19.5t46.5 -19t19.5 -47q0 -27 -19.5 -46.5t-46.5 -19.5zM129 126q33 0 51.5 -25t18.5 -64q0 -58 -32 -101.5t-75 -65.5l-24 30q60 47 61 95q-26 -4 -46 14t-20 50q0 30 18.5 48.5t47.5 18.5z" />
    <glyph glyph-name="less" unicode="&#x3c;" horiz-adv-x="546" 
d="M488 586v-115l-322 -180v-6l322 -181v-114l-430 242v112z" />
    <glyph glyph-name="equal" unicode="=" horiz-adv-x="544" 
d="M49 432h446v-88h-446v88zM49 216h446v-88h-446v88z" />
    <glyph glyph-name="greater" unicode="&#x3e;" horiz-adv-x="546" 
d="M58 586l430 -242v-112l-430 -242v114l322 181v6l-322 180v115z" />
    <glyph glyph-name="question" unicode="?" horiz-adv-x="444" 
d="M141 240q0 61 17 103.5t66 83.5q35 30 48 42.5t24.5 32t11.5 42.5q0 35 -23 56t-66 21q-45 0 -68.5 -27t-27.5 -67h-95q1 72 48 127.5t144 55.5q86 0 135.5 -43.5t49.5 -116.5q0 -18 -2.5 -33.5t-10 -30.5t-12.5 -24.5t-18.5 -24t-18 -19.5t-21.5 -20.5t-20 -18.5
q-36 -32 -51.5 -65.5t-15.5 -80.5v-35h-94v42zM187 -7q-27 0 -47 19.5t-20 46.5t20 46.5t47 19.5t46.5 -19t19.5 -47q0 -27 -19.5 -46.5t-46.5 -19.5z" />
    <glyph glyph-name="at" unicode="@" horiz-adv-x="978" 
d="M487 710q188 0 314 -117t126 -309q0 -125 -49.5 -197t-134.5 -72q-99 0 -125 92q-19 -38 -59 -64t-100 -26q-87 0 -146.5 64.5t-59.5 169.5q0 109 59.5 178t147.5 69q51 0 88.5 -22t55.5 -58h9l19 72h52v-317q0 -37 17.5 -57t45.5 -20q38 0 64.5 47t26.5 132
q0 166 -97 259t-256 93q-147 0 -246 -105t-99 -275q0 -106 50.5 -188.5t132.5 -125t179 -42.5q112 0 203 60l35 -69q-97 -71 -244 -71q-119 0 -219 50.5t-163 151.5t-63 234q0 140 62 247.5t160 161.5t214 54zM473 105q57 0 89.5 41t32.5 106q0 70 -31 113t-91 43
q-59 0 -92.5 -44.5t-33.5 -106.5q0 -66 33.5 -109t92.5 -43z" />
    <glyph glyph-name="A" unicode="A" horiz-adv-x="657" 
d="M523 0l-56 171h-277l-56 -171h-115l239 700h141l239 -700h-115zM220 264h217l-104 318h-9z" />
    <glyph glyph-name="B" unicode="B" horiz-adv-x="589" 
d="M417 368q136 -42 136 -176q0 -95 -65 -143.5t-163 -48.5h-256v700h231q98 0 158.5 -45.5t60.5 -129.5q0 -111 -102 -150v-7zM172 608v-201h124q57 0 88 27.5t31 75.5q0 47 -32.5 72.5t-83.5 25.5h-127zM307 92q64 0 101 29t37 81t-36.5 84.5t-98.5 32.5h-138v-227h135z
" />
    <glyph glyph-name="C" unicode="C" horiz-adv-x="730" 
d="M684 217q-21 -104 -102.5 -165.5t-193.5 -61.5q-154 0 -245.5 100t-91.5 259q0 157 90.5 259t235.5 102q112 0 193.5 -58.5t100.5 -171.5h-113q-16 60 -62.5 94t-116.5 34q-96 0 -154.5 -74.5t-58.5 -184.5q0 -116 60 -187t162 -71q66 0 115 34.5t68 91.5h113z" />
    <glyph glyph-name="D" unicode="D" horiz-adv-x="683" 
d="M283 700q166 0 257.5 -93t91.5 -254q0 -165 -90.5 -259t-258.5 -94h-214v700h214zM282 101q117 0 179 68.5t62 186.5q0 110 -62.5 176.5t-178.5 66.5h-105v-498h105z" />
    <glyph glyph-name="E" unicode="E" horiz-adv-x="557" 
d="M173 99h355v-99h-459v700h449v-98h-345v-200h302v-94h-302v-209z" />
    <glyph glyph-name="F" unicode="F" horiz-adv-x="540" 
d="M511 599h-335v-208h291v-97h-291v-294h-107v700h442v-101z" />
    <glyph glyph-name="G" unicode="G" horiz-adv-x="738" 
d="M359 369h309v-369h-73l-17 74h-9q-29 -31 -81.5 -57.5t-126.5 -26.5q-145 0 -227.5 96.5t-82.5 248.5q0 164 90 269.5t233 105.5q129 0 202.5 -62.5t87.5 -161.5h-112q-12 52 -57 87.5t-116 35.5q-99 0 -158.5 -75.5t-59.5 -193.5q0 -112 57 -181.5t165 -69.5
q58 0 104.5 24t73.5 54v115h-202v87z" />
    <glyph glyph-name="H" unicode="H" horiz-adv-x="673" 
d="M496 700h108v-700h-108v305h-319v-305h-108v700h108v-297h319v297z" />
    <glyph glyph-name="I" unicode="I" horiz-adv-x="249" 
d="M180 700v-700h-111v700h111z" />
    <glyph glyph-name="J" unicode="J" horiz-adv-x="529" 
d="M134 205q4 -50 32 -82t78 -32q48 0 78.5 33t30.5 97v479h107v-487q0 -105 -60 -164t-153 -59q-101 0 -158.5 59t-60.5 156h106z" />
    <glyph glyph-name="K" unicode="K" horiz-adv-x="614" 
d="M470 0l-246 307h-47v-307h-108v700h108v-288h47l218 288h126l-254 -336v-8l281 -356h-125z" />
    <glyph glyph-name="L" unicode="L" horiz-adv-x="564" 
d="M182 104h353v-104h-466v700h113v-596z" />
    <glyph glyph-name="M" unicode="M" horiz-adv-x="857" 
d="M788 700v-700h-105v534h-9l-190 -474h-111l-190 474h-10v-534h-104v700h147l209 -507h9l206 507h148z" />
    <glyph glyph-name="N" unicode="N" horiz-adv-x="706" 
d="M533 700h104v-700h-110l-345 512h-9v-512h-104v700h116l338 -509h10v509z" />
    <glyph glyph-name="O" unicode="O" horiz-adv-x="799" 
d="M400 -10q-150 0 -249.5 103t-99.5 257t99.5 257t249.5 103q149 0 248.5 -103t99.5 -257t-99.5 -257t-248.5 -103zM400 94q102 0 169 73.5t67 182.5t-67.5 182.5t-168.5 73.5q-102 0 -169.5 -73.5t-67.5 -182.5t67.5 -182.5t169.5 -73.5z" />
    <glyph glyph-name="P" unicode="P" horiz-adv-x="608" 
d="M327 700q106 0 168 -60t62 -157q0 -102 -62.5 -160.5t-173.5 -58.5h-149v-264h-103v700h258zM311 360q66 0 101.5 32.5t35.5 90.5q0 56 -35 88t-96 32h-145v-243h139z" />
    <glyph glyph-name="Q" unicode="Q" horiz-adv-x="799" 
d="M600 -42q14 0 27.5 2.5t25 7.5t17.5 8.5t16 10t11 7.5l50 -70q-18 -19 -57 -36t-85 -17q-76 0 -130 32t-77 87q-150 1 -248.5 104t-98.5 256q0 154 99.5 257t249.5 103q149 0 248.5 -103t99.5 -257q0 -126 -68.5 -220t-179.5 -126q28 -46 100 -46zM163 350
q0 -109 67.5 -182.5t169.5 -73.5t169 73.5t67 182.5t-67.5 182.5t-168.5 73.5q-102 0 -169.5 -73.5t-67.5 -182.5z" />
    <glyph glyph-name="R" unicode="R" horiz-adv-x="600" 
d="M571 0h-117l-158 276h-124v-276h-103v700h245q104 0 167 -57t63 -153q0 -69 -38 -121.5t-104 -75.5zM172 602v-228h129q63 0 98.5 31.5t35.5 83.5q0 53 -35.5 83t-98.5 30h-129z" />
    <glyph glyph-name="S" unicode="S" horiz-adv-x="595" 
d="M544 179q0 -92 -65.5 -140.5t-171.5 -48.5q-121 0 -187.5 63t-68.5 165h108q2 -61 38.5 -97.5t110.5 -36.5q56 0 91 24t35 71q0 45 -34.5 75t-121.5 59q-98 33 -152 78.5t-54 123.5q0 89 62.5 142t159.5 53q108 0 171 -61t65 -148h-101q-3 47 -37 81t-98 34
q-51 0 -82 -26.5t-31 -67.5t33.5 -67t113.5 -54q109 -39 162.5 -89.5t53.5 -132.5z" />
    <glyph glyph-name="T" unicode="T" horiz-adv-x="563" 
d="M534 700v-98h-199v-602h-108v602h-199v98h506z" />
    <glyph glyph-name="U" unicode="U" horiz-adv-x="693" 
d="M625 700v-420q0 -142 -77.5 -216t-199.5 -74t-200.5 74t-78.5 216v420h112v-421q0 -88 46 -137t121 -49q74 0 119.5 49t45.5 137v421h112z" />
    <glyph glyph-name="V" unicode="V" horiz-adv-x="653" 
d="M519 700h115l-233 -700h-150l-232 700h115l188 -582h10z" />
    <glyph glyph-name="W" unicode="W" horiz-adv-x="891" 
d="M769 700h103l-138 -700h-153l-131 503h-9l-131 -503h-153l-138 700h105l110 -567h9l134 517h137l134 -517h9z" />
    <glyph glyph-name="X" unicode="X" horiz-adv-x="625" 
d="M481 0l-162 268h-9l-162 -268h-129l221 361l-210 339h127l152 -248h10l153 248h122l-210 -339l221 -361h-124z" />
    <glyph glyph-name="Y" unicode="Y" horiz-adv-x="646" 
d="M499 700h128l-247 -378v-322h-113v322l-248 378h128l171 -261h9z" />
    <glyph glyph-name="Z" unicode="Z" horiz-adv-x="602" 
d="M204 100h340v-100h-493v76l346 518v7h-324v99h469v-75l-338 -518v-7z" />
    <glyph glyph-name="bracketleft" unicode="[" horiz-adv-x="295" 
d="M69 773h187v-84h-96v-774h103v-84h-194v942z" />
    <glyph glyph-name="backslash" unicode="\" horiz-adv-x="497" 
d="M19 750h107l352 -800h-109z" />
    <glyph glyph-name="bracketright" unicode="]" horiz-adv-x="295" 
d="M226 773v-942h-194v84h103v774h-96v84h187z" />
    <glyph glyph-name="asciicircum" unicode="^" horiz-adv-x="530" 
d="M387 360l-116 235h-10l-117 -235h-105l167 340h119l166 -340h-104z" />
    <glyph glyph-name="underscore" unicode="_" horiz-adv-x="492" 
d="M28 0h435v-88h-435v88z" />
    <glyph glyph-name="grave" unicode="`" horiz-adv-x="313" 
d="M183 690l62 -135h-73l-103 135h114z" />
    <glyph glyph-name="a" unicode="a" horiz-adv-x="523" 
d="M458 133q0 -27 10.5 -37.5t33.5 -10.5v-85h-19q-82 0 -101 66q-63 -76 -172 -76q-76 0 -123.5 37t-47.5 105q0 148 225 166l95 7v12q0 52 -25.5 82.5t-71.5 30.5q-47 0 -72.5 -27t-30.5 -64h-98q7 75 60 123t140 48q88 0 142.5 -52.5t54.5 -147.5v-177zM222 73
q55 0 96 35t41 97v26l-76 -6q-141 -11 -141 -87q0 -32 22.5 -48.5t57.5 -16.5z" />
    <glyph glyph-name="b" unicode="b" horiz-adv-x="587" 
d="M315 510q99 0 166 -72t67 -188q0 -115 -65 -187.5t-163 -72.5t-153 76h-11l-15 -66h-77v712h101v-279q43 77 150 77zM304 83q62 0 102 47t40 120q0 74 -39.5 120.5t-102.5 46.5q-62 0 -100.5 -46.5t-38.5 -120.5t38.5 -120.5t100.5 -46.5z" />
    <glyph glyph-name="c" unicode="c" horiz-adv-x="562" 
d="M523 173q-11 -81 -75 -132t-156 -51q-118 0 -185.5 73t-67.5 186q0 111 72 186t179 75q93 0 158 -54t73 -139h-103q-7 42 -41 71.5t-89 29.5q-65 0 -105.5 -47.5t-40.5 -121.5q0 -76 38.5 -122.5t110.5 -46.5q49 0 82.5 26t45.5 67h104z" />
    <glyph glyph-name="d" unicode="d" horiz-adv-x="587" 
d="M422 712h101v-712h-77l-15 66h-11q-55 -76 -153 -76t-163 72.5t-65 187.5q0 116 67 188t166 72q107 0 150 -77v279zM283 83q62 0 100.5 46.5t38.5 120.5t-38.5 120.5t-100.5 46.5q-63 0 -102.5 -46.5t-39.5 -120.5q0 -73 40 -120t102 -47z" />
    <glyph glyph-name="e" unicode="e" horiz-adv-x="554" 
d="M280 510q107 0 174 -72t58 -213h-374q6 -69 44 -108.5t107 -39.5q42 0 75.5 18.5t48.5 54.5h99q-18 -76 -80 -118t-144 -42q-115 0 -182 71.5t-67 190.5q0 113 68.5 185.5t172.5 72.5zM142 302h274q-2 52 -38 88.5t-95 36.5q-55 0 -92.5 -33.5t-48.5 -91.5z" />
    <glyph glyph-name="f" unicode="f" horiz-adv-x="398" 
d="M222 551v-51h128v-84h-128v-416h-102v416h-92v84h92v61q0 69 39.5 109t101.5 40q72 0 108 -36l-33 -79q-26 24 -58 24q-56 0 -56 -68z" />
    <glyph glyph-name="g" unicode="g" horiz-adv-x="536" 
d="M510 478q-25 -29 -79 -52q26 -41 26 -93q0 -74 -55.5 -119t-142.5 -45q-39 0 -77 11q-36 -16 -36 -38q0 -42 79 -42h82q88 0 134.5 -39t46.5 -108q0 -74 -60 -118.5t-162 -44.5q-108 0 -168 52.5t-59 126.5l75 61q-61 25 -61 87q0 61 69 95q-59 46 -59 124q0 76 53 125
t139 49q75 0 127 -35q42 23 77 68zM261 244q43 0 70 27.5t27 68.5t-26.5 68.5t-69.5 27.5q-44 0 -71.5 -27.5t-27.5 -69.5q0 -40 27.5 -67.5t70.5 -27.5zM387 -51q0 35 -26.5 52.5t-70.5 17.5h-79l-72 -57q17 -89 132 -89q52 0 84 20t32 56z" />
    <glyph glyph-name="h" unicode="h" horiz-adv-x="581" 
d="M330 510q90 0 141 -55t51 -155v-300h-105v265q0 71 -32.5 109.5t-92.5 38.5q-49 0 -84.5 -36t-35.5 -101v-276h-108v710h108v-268h10q22 27 60.5 47.5t87.5 20.5z" />
    <glyph glyph-name="i" unicode="i" horiz-adv-x="235" 
d="M118 571q-28 0 -48.5 20t-20.5 48t20.5 48t48.5 20t47.5 -20t19.5 -48t-19.5 -48t-47.5 -20zM169 500v-500h-103v500h103z" />
    <glyph glyph-name="j" unicode="j" horiz-adv-x="265" 
d="M148 571q-28 0 -48.5 20t-20.5 48t20.5 48t48.5 20t47.5 -20t19.5 -48t-19.5 -48t-47.5 -20zM-17 -95q26 -24 58 -24q56 0 56 68v551h102v-561q0 -69 -39.5 -109t-101.5 -40q-72 0 -108 36z" />
    <glyph glyph-name="k" unicode="k" horiz-adv-x="525" 
d="M499 500l-202 -209l202 -291h-117l-154 219l-62 -64v-155h-102v710h102v-414h9l194 204h130z" />
    <glyph glyph-name="l" unicode="l" horiz-adv-x="232" 
d="M64 710h104v-710h-104v710z" />
    <glyph glyph-name="m" unicode="m" horiz-adv-x="843" 
d="M610 509q80 0 127 -52.5t47 -156.5v-300h-106v295q0 58 -27.5 88.5t-71.5 30.5q-42 0 -72 -32.5t-30 -89.5v-292h-106v289q0 60 -28 93t-69 33t-72.5 -31.5t-31.5 -89.5v-294h-106v500h81l15 -62h9q19 31 55 51.5t83 20.5q53 0 90.5 -28t52.5 -64h9q19 39 56.5 65
t94.5 26z" />
    <glyph glyph-name="n" unicode="n" horiz-adv-x="570" 
d="M323 510q84 0 136.5 -56.5t52.5 -160.5v-293h-107v275q0 69 -32.5 104.5t-85.5 35.5q-48 0 -82 -34t-34 -102v-279h-107v500h81l15 -62h10q50 72 153 72z" />
    <glyph glyph-name="o" unicode="o" horiz-adv-x="591" 
d="M296 -10q-110 0 -183.5 74t-73.5 187q0 112 73 185.5t183 73.5t184 -73.5t74 -186.5t-73 -186.5t-184 -73.5zM296 82q68 0 110.5 48.5t42.5 119.5q0 70 -43 119t-111 49q-67 0 -109.5 -48.5t-42.5 -119.5t42.5 -119.5t110.5 -48.5z" />
    <glyph glyph-name="p" unicode="p" horiz-adv-x="587" 
d="M320 510q98 0 163 -72.5t65 -187.5q0 -116 -67 -188t-166 -72q-107 0 -150 77v-267h-101v700h77l15 -66h11q55 76 153 76zM304 83q63 0 102.5 46.5t39.5 120.5q0 73 -40 120t-102 47t-100.5 -46.5t-38.5 -120.5t38.5 -120.5t100.5 -46.5z" />
    <glyph glyph-name="q" unicode="q" horiz-adv-x="587" 
d="M446 500h77v-700h-101v267q-43 -77 -150 -77q-99 0 -166 72t-67 188q0 115 65 187.5t163 72.5t153 -76h11zM283 83q62 0 100.5 46.5t38.5 120.5t-38.5 120.5t-100.5 46.5t-102 -47t-40 -120q0 -74 39.5 -120.5t102.5 -46.5z" />
    <glyph glyph-name="r" unicode="r" horiz-adv-x="383" 
d="M320 510h33v-104q-18 5 -45 5q-58 0 -98 -41.5t-40 -124.5v-245h-106v500h81l16 -70h9q54 80 150 80z" />
    <glyph glyph-name="s" unicode="s" horiz-adv-x="469" 
d="M430 132q0 -67 -53 -104.5t-135 -37.5q-91 0 -146 48t-57 125h100q1 -46 32.5 -69t72.5 -23q36 0 60 16t24 45q0 32 -28 51t-82 35q-26 7 -45.5 14.5t-43 20t-38.5 27t-25.5 37t-10.5 48.5q0 65 51 105t129 40q82 0 131 -44t52 -108h-97q-2 32 -27 52t-63 20
q-31 0 -52 -15.5t-21 -42.5q0 -28 24.5 -45.5t79.5 -34.5q81 -24 124.5 -60t43.5 -100z" />
    <glyph glyph-name="t" unicode="t" horiz-adv-x="379" 
d="M347 14q-40 -24 -88 -24q-133 0 -133 143v283h-98v76h30q78 0 78 70v64h93v-126h121v-84h-121v-273q0 -62 49 -62q23 0 44 14z" />
    <glyph glyph-name="u" unicode="u" horiz-adv-x="570" 
d="M249 -10q-83 0 -135.5 56.5t-52.5 160.5v293h107v-275q0 -69 32 -104.5t85 -35.5q48 0 81 34t33 102v279h108v-500h-82l-15 62h-9q-53 -72 -152 -72z" />
    <glyph glyph-name="v" unicode="v" horiz-adv-x="556" 
d="M423 500h107l-178 -500h-148l-178 500h108l140 -407h10z" />
    <glyph glyph-name="w" unicode="w" horiz-adv-x="740" 
d="M618 500h96l-119 -500h-127l-93 357h-9l-95 -357h-126l-119 500h97l86 -391h9l94 356h117l95 -356h9z" />
    <glyph glyph-name="x" unicode="x" horiz-adv-x="527" 
d="M382 0l-113 181h-9l-116 -181h-118l164 259l-151 241h117l103 -164h9l102 164h117l-150 -241l164 -259h-119z" />
    <glyph glyph-name="y" unicode="y" horiz-adv-x="563" 
d="M430 500h107l-188 -556q-24 -74 -66.5 -114t-118.5 -40q-79 0 -120 44l42 73q36 -29 74 -29q30 0 53.5 22.5t35.5 57.5l14 42h-40l-196 500h111l151 -395h10z" />
    <glyph glyph-name="z" unicode="z" horiz-adv-x="467" 
d="M177 86h250v-86h-388v62l244 345v7h-231v86h370v-62l-245 -345v-7z" />
    <glyph glyph-name="braceleft" unicode="{" horiz-adv-x="281" 
d="M191 415q0 -77 -68 -109v-8q68 -32 68 -109v-227q0 -59 53 -59h17v-72h-36q-60 0 -92 32t-32 92v226q0 41 -17 62t-56 25v68q39 4 56 25t17 62v226q0 60 32 92t92 32h36v-71h-17q-53 0 -53 -60v-227z" />
    <glyph glyph-name="bar" unicode="|" horiz-adv-x="232" 
d="M164 770v-910h-95v910h95z" />
    <glyph glyph-name="braceright" unicode="}" horiz-adv-x="281" 
d="M90 415v227q0 60 -53 60h-17v71h36q60 0 92 -32t32 -92v-226q0 -41 17 -62t56 -25v-68q-39 -4 -56 -25t-17 -62v-226q0 -60 -32 -92t-92 -32h-36v72h17q53 0 53 59v227q0 77 68 109v8q-68 32 -68 109z" />
    <glyph glyph-name="asciitilde" unicode="~" horiz-adv-x="615" 
d="M557 329q-5 -18 -14.5 -36.5t-26.5 -41.5t-46 -37.5t-64 -14.5q-42 0 -75.5 19.5t-62.5 39.5t-60 20q-55 0 -86 -69l-64 22q5 19 14.5 37.5t26.5 41.5t46 37.5t65 14.5q33 0 61.5 -12.5t45.5 -27t41 -27t49 -12.5q56 0 87 69z" />
    <glyph glyph-name="uni00A0" unicode="&#xa0;" horiz-adv-x="250" 
 />
    <glyph glyph-name="exclamdown" unicode="&#xa1;" horiz-adv-x="244" 
d="M121 507q27 0 47 -19.5t20 -46.5t-20 -46.5t-47 -19.5t-46.5 19t-19.5 47q0 27 19.5 46.5t46.5 19.5zM175 -200h-106l16 502h73z" />
    <glyph glyph-name="cent" unicode="&#xa2;" horiz-adv-x="538" 
d="M499 247q-9 -67 -57.5 -113t-121.5 -57v-77h-86v77q-92 14 -143.5 80.5t-51.5 162.5q0 93 55 160.5t140 82.5v77h86v-77q72 -11 121 -60t56 -119h-98q-5 31 -25.5 55.5t-53.5 34.5v-309q61 18 80 82h99zM137 320q0 -60 24.5 -101t72.5 -54v309q-45 -14 -71 -55.5
t-26 -98.5z" />
    <glyph glyph-name="sterling" unicode="&#xa3;" horiz-adv-x="563" 
d="M207 93v-8h295v-85h-451v66q57 18 95.5 59.5t38.5 101.5q0 25 -6 44h-128v72h91q-17 26 -25 39t-17 38.5t-9 51.5q0 80 57.5 129t142.5 49q53 0 96 -17.5t68 -44.5t39 -53t18 -49l-83 -24q-38 101 -135 101q-50 0 -78.5 -26.5t-28.5 -69.5q0 -17 6.5 -34.5t13.5 -28
t21.5 -31.5t20.5 -30h215l-17 -72h-166q3 -17 3 -34q0 -93 -77 -144z" />
    <glyph glyph-name="currency" unicode="&#xa4;" horiz-adv-x="589" 
d="M512 250q0 -65 -36 -120l74 -72l-64 -63l-73 73q-53 -35 -118 -35t-119 35l-75 -73l-62 63l73 73q-35 54 -35 119t35 119l-73 73l62 63l74 -72q55 34 120 34t118 -35l73 73l64 -63l-74 -72q36 -53 36 -120zM295 127q50 0 86 37t36 86t-36 86t-86 37q-51 0 -87 -37
t-36 -86t36 -86t87 -37z" />
    <glyph glyph-name="yen" unicode="&#xa5;" horiz-adv-x="558" 
d="M539 640l-175 -257h128v-70h-164v-58h164v-70h-164v-185h-100v185h-162v70h162v58h-162v70h126l-173 257h110l145 -225h9l145 225h111z" />
    <glyph glyph-name="brokenbar" unicode="&#xa6;" horiz-adv-x="232" 
d="M69 770h95v-355h-95v355zM69 -140v355h95v-355h-95z" />
    <glyph glyph-name="section" unicode="&#xa7;" horiz-adv-x="585" 
d="M414 90q101 -37 101 -130q0 -80 -60.5 -124.5t-151.5 -44.5q-108 0 -172.5 57t-62.5 139h98q2 -46 38.5 -76.5t95.5 -30.5q49 0 81 22.5t32 59.5q0 73 -144 95q-98 15 -158 64t-60 133q0 61 38 102.5t82 54.5q-101 36 -101 129q0 81 60.5 125.5t151.5 44.5
q109 0 173.5 -57t62.5 -140h-99q-2 47 -38 77t-96 30q-49 0 -81 -22t-32 -59q0 -44 40.5 -64.5t105.5 -30.5q97 -15 156.5 -64.5t59.5 -133.5q0 -61 -38 -102t-82 -54zM302 139q57 0 93 29t36 78q0 53 -44 84.5t-103 31.5q-57 0 -93.5 -29.5t-36.5 -78.5q0 -53 44 -84
t104 -31z" />
    <glyph glyph-name="dieresis" unicode="&#xa8;" horiz-adv-x="446" 
d="M130 553q-25 0 -43 18t-18 43t17.5 42.5t43.5 17.5q25 0 42.5 -17.5t17.5 -42.5t-17.5 -43t-42.5 -18zM317 553q-24 0 -42 18t-18 43t18 42.5t42 17.5q25 0 42.5 -17t17.5 -43q0 -25 -17.5 -43t-42.5 -18z" />
    <glyph glyph-name="copyright" unicode="&#xa9;" 
d="M411 -10q-149 0 -254.5 105t-105.5 255t105.5 255t254.5 105q148 0 254 -105t106 -255t-106 -255t-254 -105zM411 50q123 0 211 87.5t88 212.5t-88 212.5t-211 87.5t-210 -87.5t-87 -212.5t87 -212.5t210 -87.5zM586 299q-10 -69 -56 -104.5t-115 -35.5q-76 0 -130 51.5
t-54 138.5q0 86 53 137t126 51q66 0 114.5 -37.5t57.5 -107.5h-82q-8 32 -32 50t-58 18q-41 0 -69 -31.5t-28 -79.5q0 -49 28.5 -81.5t75.5 -32.5q35 0 57.5 17.5t28.5 46.5h83z" />
    <glyph glyph-name="guillemotleft" unicode="&#xab;" horiz-adv-x="536" 
d="M151 501h116l-133 -202l133 -202h-116l-131 202zM382 501h116l-133 -202l133 -202h-116l-131 202z" />
    <glyph glyph-name="logicalnot" unicode="&#xac;" horiz-adv-x="558" 
d="M501 142h-90v191h-353v82h443v-273z" />
    <glyph glyph-name="uni00AD" unicode="&#xad;" horiz-adv-x="417" 
d="M28 355h360v-88h-360v88z" />
    <glyph glyph-name="registered" unicode="&#xae;" 
d="M411 710q148 0 254 -105t106 -255t-106 -255t-254 -105q-149 0 -254.5 105t-105.5 255t105.5 255t254.5 105zM411 50q123 0 211 87.5t88 212.5t-88 212.5t-211 87.5t-210 -87.5t-87 -212.5t87 -212.5t210 -87.5zM558 412q0 -73 -71 -101l80 -140h-79l-74 129h-47v-129
h-74v360h130q68 0 101.5 -33.5t33.5 -85.5zM367 467v-103h64q26 0 40.5 14.5t14.5 37.5q0 21 -14.5 36t-42.5 15h-62z" />
    <glyph glyph-name="macron" unicode="&#xaf;" horiz-adv-x="449" 
d="M69 649h311v-72h-311v72z" />
    <glyph glyph-name="degree" unicode="&#xb0;" horiz-adv-x="378" 
d="M189 410q-61 0 -105.5 44t-44.5 106t44.5 106t105.5 44t105.5 -44.5t44.5 -105.5t-44.5 -105.5t-105.5 -44.5zM189 492q30 0 49 19.5t19 48.5t-19 48.5t-49 19.5t-49 -19.5t-19 -48.5t19 -48.5t49 -19.5z" />
    <glyph glyph-name="plusminus" unicode="&#xb1;" horiz-adv-x="542" 
d="M318 395h166v-81h-166v-165h-93v165h-167v81h167v163h93v-163zM58 0v85h426v-85h-426z" />
    <glyph glyph-name="uni00B2" unicode="&#xb2;" horiz-adv-x="334" 
d="M202 498q-90 -50 -92 -96h190v-61h-268v25q0 103 101 162q9 5 23.5 13t21.5 12.5t17 11t15 11t10.5 11t7.5 13.5t2 15q0 23 -15.5 38t-42.5 15q-32 0 -49 -20.5t-19 -48.5h-71q0 51 36.5 91.5t106.5 40.5q53 0 89.5 -30.5t36.5 -79.5q0 -31 -17 -56.5t-35 -38t-48 -28.5z
" />
    <glyph glyph-name="uni00B3" unicode="&#xb3;" horiz-adv-x="343" 
d="M239 543q32 -9 52 -35t20 -59q0 -51 -38 -83t-108 -32q-69 0 -104 35t-39 91h68q2 -28 22 -47.5t55 -19.5q34 0 54.5 16.5t20.5 42.5q0 29 -22.5 45.5t-61.5 16.5h-18v57h21q31 0 49 14t18 36t-16.5 36t-42.5 14t-43 -14t-20 -37h-68q0 48 38 79t94 31q55 0 91 -28.5
t36 -70.5q0 -53 -58 -83v-5z" />
    <glyph glyph-name="acute" unicode="&#xb4;" horiz-adv-x="313" 
d="M130 690h114l-103 -135h-73z" />
    <glyph glyph-name="uni00B5" unicode="&#xb5;" horiz-adv-x="573" 
d="M401 500h108v-500h-82l-15 62h-9q-53 -72 -152 -72q-46 0 -87 19v-209h-100v380q-1 9 -1 27v293h107v-275q0 -69 32 -104.5t85 -35.5q48 0 81 34t33 102v279z" />
    <glyph glyph-name="paragraph" unicode="&#xb6;" horiz-adv-x="623" 
d="M39 512q0 83 59 135.5t148 52.5h348v-88h-84v-812h-87v812h-89v-812h-88v523q-87 0 -147 52.5t-60 136.5z" />
    <glyph glyph-name="periodcentered" unicode="&#xb7;" horiz-adv-x="190" 
d="M95 243q-27 0 -47 19.5t-20 46.5t20 46.5t47 19.5t46.5 -19t19.5 -47q0 -27 -19.5 -46.5t-46.5 -19.5z" />
    <glyph glyph-name="cedilla" unicode="&#xb8;" horiz-adv-x="344" 
d="M142 4h66l-33 -48q38 7 69 -16.5t31 -65.5q0 -39 -26.5 -61.5t-75.5 -22.5q-32 0 -57 13.5t-34 25.5t-14 23l43 25q22 -36 60 -36q20 0 32 10.5t12 27.5q0 16 -12.5 26.5t-36.5 10.5q-14 0 -34 -10l-32 34z" />
    <glyph glyph-name="uni00B9" unicode="&#xb9;" horiz-adv-x="242" 
d="M118 340v253h-91v61h51q43 0 43 45v26h69v-385h-72z" />
    <glyph glyph-name="guillemotright" unicode="&#xbb;" horiz-adv-x="536" 
d="M154 97h-116l133 202l-133 202h116l131 -202zM385 97h-116l133 202l-133 202h116l131 -202z" />
    <glyph glyph-name="onequarter" unicode="&#xbc;" horiz-adv-x="740" 
d="M118 255v253h-91v61h51q43 0 43 45v26h69v-385h-72zM649 640l-498 -640h-82l498 640h82zM717 139v-58h-65v-81h-63v81h-190v38l160 266h93v-246h65zM477 139h112v171h-6z" />
    <glyph glyph-name="onehalf" unicode="&#xbd;" horiz-adv-x="768" 
d="M118 255v253h-91v61h51q43 0 43 45v26h69v-385h-72zM649 640l-498 -640h-82l498 640h82zM636 157q-90 -50 -92 -96h190v-61h-268v25q0 103 101 162q9 5 23.5 13t21.5 12.5t17 11t15 11t10.5 11t7.5 13.5t2 15q0 23 -15.5 38t-42.5 15q-32 0 -49 -20.5t-19 -48.5h-71
q0 51 36.5 91.5t106.5 40.5q53 0 89.5 -30.5t36.5 -79.5q0 -31 -17 -56.5t-35 -38t-48 -28.5z" />
    <glyph glyph-name="threequarters" unicode="&#xbe;" horiz-adv-x="814" 
d="M239 458q32 -9 52 -35t20 -59q0 -51 -38 -83t-108 -32q-69 0 -104 35t-39 91h68q2 -28 22 -47.5t55 -19.5q34 0 54.5 16.5t20.5 42.5q0 29 -22.5 45.5t-61.5 16.5h-18v57h21q31 0 49 14t18 36t-16.5 36t-42.5 14t-43 -14t-20 -37h-68q0 48 38 79t94 31q55 0 91 -28.5
t36 -70.5q0 -53 -58 -83v-5zM723 640l-498 -640h-82l498 640h82zM791 139v-58h-65v-81h-63v81h-190v38l160 266h93v-246h65zM551 139h112v171h-6z" />
    <glyph glyph-name="questiondown" unicode="&#xbf;" horiz-adv-x="444" 
d="M257 507q27 0 47 -19.5t20 -46.5t-20 -46.5t-47 -19.5t-46.5 19t-19.5 47q0 27 19.5 46.5t46.5 19.5zM303 260q0 -61 -17 -103.5t-66 -83.5q-35 -30 -48 -42.5t-24.5 -32t-11.5 -42.5q0 -35 23 -56t66 -21q45 0 68.5 27t27.5 67h95q-1 -72 -48 -127.5t-144 -55.5
q-86 0 -135.5 43.5t-49.5 116.5q0 18 2.5 33.5t10 30.5t12.5 24.5t18.5 24t18 19.5t21.5 20.5t20 18.5q36 32 51.5 65.5t15.5 80.5v35h94v-42z" />
    <glyph glyph-name="Agrave" unicode="&#xc0;" horiz-adv-x="657" 
d="M378 758h-77l-108 141h120zM523 0l-56 171h-277l-56 -171h-115l239 700h141l239 -700h-115zM220 264h217l-104 318h-9z" />
    <glyph glyph-name="Aacute" unicode="&#xc1;" horiz-adv-x="657" 
d="M468 899l-108 -141h-77l65 141h120zM523 0l-56 171h-277l-56 -171h-115l239 700h141l239 -700h-115zM220 264h217l-104 318h-9z" />
    <glyph glyph-name="Acircumflex" unicode="&#xc2;" horiz-adv-x="657" 
d="M323 850l-60 -82h-95l116 148h87l117 -148h-95l-60 82h-10zM523 0l-56 171h-277l-56 -171h-115l239 700h141l239 -700h-115zM220 264h217l-104 318h-9z" />
    <glyph glyph-name="Atilde" unicode="&#xc3;" horiz-adv-x="657" 
d="M261 812q-34 0 -57 -46l-59 30q10 34 39 64t74 30q38 0 77.5 -25.5t60.5 -25.5q37 0 57 46l60 -31q-9 -33 -38 -62.5t-75 -29.5q-38 0 -78 25t-61 25zM523 0l-56 171h-277l-56 -171h-115l239 700h141l239 -700h-115zM220 264h217l-104 318h-9z" />
    <glyph glyph-name="Adieresis" unicode="&#xc4;" horiz-adv-x="657" 
d="M214 761q-28 0 -47.5 19.5t-19.5 46.5q0 28 19.5 47.5t47.5 19.5q27 0 46.5 -19.5t19.5 -47.5q0 -27 -19.5 -46.5t-46.5 -19.5zM445 761q-27 0 -46.5 19.5t-19.5 46.5q0 28 19.5 47.5t46.5 19.5t46.5 -19.5t19.5 -47.5q0 -27 -19.5 -46.5t-46.5 -19.5zM523 0l-56 171
h-277l-56 -171h-115l239 700h141l239 -700h-115zM220 264h217l-104 318h-9z" />
    <glyph glyph-name="Aring" unicode="&#xc5;" horiz-adv-x="657" 
d="M523 0l-56 171h-277l-56 -171h-115l228 667q-31 33 -31 75q0 47 33.5 80.5t80.5 33.5t80.5 -33.5t33.5 -80.5q0 -43 -33 -78l227 -664h-115zM331 788q-19 0 -32 -13.5t-13 -32.5q0 -14 8.5 -25.5t22.5 -16.5h26q14 5 22.5 16.5t8.5 25.5q0 19 -13 32.5t-30 13.5zM220 264
h217l-104 318h-9z" />
    <glyph glyph-name="AE" unicode="&#xc6;" horiz-adv-x="990" 
d="M606 99h355v-99h-459v175h-259l-102 -175h-122l404 700h528v-98h-345v-200h302v-94h-302v-209zM299 272h203v327h-12z" />
    <glyph glyph-name="Ccedilla" unicode="&#xc7;" horiz-adv-x="730" 
d="M684 217q-19 -98 -93.5 -158.5t-178.5 -67.5l-25 -36q39 7 71 -17t32 -67q0 -40 -27.5 -63t-77.5 -23q-46 0 -72.5 22t-34.5 42l44 25q22 -37 61 -37q21 0 33 11t12 28t-13 27.5t-37 10.5q-12 0 -35 -10l-32 35l35 53q-135 14 -215 112t-80 245q0 157 90.5 259t235.5 102
q112 0 193.5 -58.5t100.5 -171.5h-113q-16 60 -62.5 94t-116.5 34q-96 0 -154.5 -74.5t-58.5 -184.5q0 -116 60 -187t162 -71q66 0 115 34.5t68 91.5h113z" />
    <glyph glyph-name="Egrave" unicode="&#xc8;" horiz-adv-x="557" 
d="M278 899l65 -141h-77l-108 141h120zM173 99h355v-99h-459v700h449v-98h-345v-200h302v-94h-302v-209z" />
    <glyph glyph-name="Eacute" unicode="&#xc9;" horiz-adv-x="557" 
d="M313 899h120l-108 -141h-77zM173 99h355v-99h-459v700h449v-98h-345v-200h302v-94h-302v-209z" />
    <glyph glyph-name="Ecircumflex" unicode="&#xca;" horiz-adv-x="557" 
d="M228 768h-95l116 148h87l117 -148h-95l-60 82h-10zM173 99h355v-99h-459v700h449v-98h-345v-200h302v-94h-302v-209z" />
    <glyph glyph-name="Edieresis" unicode="&#xcb;" horiz-adv-x="557" 
d="M179 761q-28 0 -47.5 19.5t-19.5 46.5q0 28 19.5 47.5t47.5 19.5q27 0 46.5 -19.5t19.5 -47.5q0 -27 -19.5 -46.5t-46.5 -19.5zM410 761q-27 0 -46.5 19.5t-19.5 46.5q0 28 19.5 47.5t46.5 19.5t46.5 -19.5t19.5 -47.5q0 -27 -19.5 -46.5t-46.5 -19.5zM173 99h355v-99
h-459v700h449v-98h-345v-200h302v-94h-302v-209z" />
    <glyph glyph-name="Igrave" unicode="&#xcc;" horiz-adv-x="249" 
d="M109 899l65 -141h-77l-108 141h120zM180 700v-700h-111v700h111z" />
    <glyph glyph-name="Iacute" unicode="&#xcd;" horiz-adv-x="249" 
d="M144 899h120l-108 -141h-77zM180 700v-700h-111v700h111z" />
    <glyph glyph-name="Icircumflex" unicode="&#xce;" horiz-adv-x="249" 
d="M59 768h-95l116 148h87l117 -148h-95l-60 82h-10zM180 700v-700h-111v700h111z" />
    <glyph glyph-name="Idieresis" unicode="&#xcf;" horiz-adv-x="249" 
d="M10 761q-28 0 -47.5 19.5t-19.5 46.5q0 28 19.5 47.5t47.5 19.5q27 0 46.5 -19.5t19.5 -47.5q0 -27 -19.5 -46.5t-46.5 -19.5zM241 761q-27 0 -46.5 19.5t-19.5 46.5q0 28 19.5 47.5t46.5 19.5t46.5 -19.5t19.5 -47.5q0 -27 -19.5 -46.5t-46.5 -19.5zM180 700v-700h-111
v700h111z" />
    <glyph glyph-name="Eth" unicode="&#xd0;" horiz-adv-x="683" 
d="M283 700q166 0 257.5 -93t91.5 -254q0 -165 -90.5 -259t-258.5 -94h-214v313h-107v80h107v307h214zM282 101q117 0 179 68.5t62 186.5q0 110 -62.5 176.5t-178.5 66.5h-105v-206h171v-80h-171v-212h105z" />
    <glyph glyph-name="Ntilde" unicode="&#xd1;" horiz-adv-x="706" 
d="M537 854q-9 -33 -38 -62.5t-75 -29.5q-38 0 -78 25t-61 25q-34 0 -57 -46l-59 30q10 34 39 64t74 30q38 0 77.5 -25.5t60.5 -25.5q37 0 57 46zM533 700h104v-700h-110l-345 512h-9v-512h-104v700h116l338 -509h10v509z" />
    <glyph glyph-name="Ograve" unicode="&#xd2;" horiz-adv-x="799" 
d="M383 899l65 -141h-77l-108 141h120zM400 -10q-150 0 -249.5 103t-99.5 257t99.5 257t249.5 103q149 0 248.5 -103t99.5 -257t-99.5 -257t-248.5 -103zM400 94q102 0 169 73.5t67 182.5t-67.5 182.5t-168.5 73.5q-102 0 -169.5 -73.5t-67.5 -182.5t67.5 -182.5
t169.5 -73.5z" />
    <glyph glyph-name="Oacute" unicode="&#xd3;" horiz-adv-x="799" 
d="M418 899h120l-108 -141h-77zM400 -10q-150 0 -249.5 103t-99.5 257t99.5 257t249.5 103q149 0 248.5 -103t99.5 -257t-99.5 -257t-248.5 -103zM400 94q102 0 169 73.5t67 182.5t-67.5 182.5t-168.5 73.5q-102 0 -169.5 -73.5t-67.5 -182.5t67.5 -182.5t169.5 -73.5z" />
    <glyph glyph-name="Ocircumflex" unicode="&#xd4;" horiz-adv-x="799" 
d="M333 768h-95l116 148h87l117 -148h-95l-60 82h-10zM400 -10q-150 0 -249.5 103t-99.5 257t99.5 257t249.5 103q149 0 248.5 -103t99.5 -257t-99.5 -257t-248.5 -103zM400 94q102 0 169 73.5t67 182.5t-67.5 182.5t-168.5 73.5q-102 0 -169.5 -73.5t-67.5 -182.5
t67.5 -182.5t169.5 -73.5z" />
    <glyph glyph-name="Otilde" unicode="&#xd5;" horiz-adv-x="799" 
d="M583 854q-9 -33 -38 -62.5t-75 -29.5q-38 0 -78 25t-61 25q-34 0 -57 -46l-59 30q10 34 39 64t74 30q38 0 77.5 -25.5t60.5 -25.5q37 0 57 46zM400 -10q-150 0 -249.5 103t-99.5 257t99.5 257t249.5 103q149 0 248.5 -103t99.5 -257t-99.5 -257t-248.5 -103zM400 94
q102 0 169 73.5t67 182.5t-67.5 182.5t-168.5 73.5q-102 0 -169.5 -73.5t-67.5 -182.5t67.5 -182.5t169.5 -73.5z" />
    <glyph glyph-name="Odieresis" unicode="&#xd6;" horiz-adv-x="799" 
d="M284 761q-28 0 -47.5 19.5t-19.5 46.5q0 28 19.5 47.5t47.5 19.5q27 0 46.5 -19.5t19.5 -47.5q0 -27 -19.5 -46.5t-46.5 -19.5zM515 761q-27 0 -46.5 19.5t-19.5 46.5q0 28 19.5 47.5t46.5 19.5t46.5 -19.5t19.5 -47.5q0 -27 -19.5 -46.5t-46.5 -19.5zM400 -10
q-150 0 -249.5 103t-99.5 257t99.5 257t249.5 103q149 0 248.5 -103t99.5 -257t-99.5 -257t-248.5 -103zM400 94q102 0 169 73.5t67 182.5t-67.5 182.5t-168.5 73.5q-102 0 -169.5 -73.5t-67.5 -182.5t67.5 -182.5t169.5 -73.5z" />
    <glyph glyph-name="multiply" unicode="&#xd7;" horiz-adv-x="571" 
d="M503 431l-155 -151l155 -151l-62 -62l-155 152l-155 -152l-62 62l155 151l-155 151l61 62l156 -152l156 152z" />
    <glyph glyph-name="Oslash" unicode="&#xd8;" horiz-adv-x="799" 
d="M638 617q110 -105 110 -267q0 -154 -99.5 -257t-248.5 -103q-92 0 -172 43l-38 -54l-69 50l38 55q-108 105 -108 266q0 154 99.5 257t249.5 103q90 0 167 -41l37 52l71 -51zM163 350q0 -103 60 -174l283 405q-50 25 -106 25q-102 0 -169.5 -73.5t-67.5 -182.5zM400 94
q102 0 169 73.5t67 182.5q0 104 -62 176l-284 -405q51 -27 110 -27z" />
    <glyph glyph-name="Ugrave" unicode="&#xd9;" horiz-adv-x="693" 
d="M331 899l65 -141h-77l-108 141h120zM625 700v-420q0 -142 -77.5 -216t-199.5 -74t-200.5 74t-78.5 216v420h112v-421q0 -88 46 -137t121 -49q74 0 119.5 49t45.5 137v421h112z" />
    <glyph glyph-name="Uacute" unicode="&#xda;" horiz-adv-x="693" 
d="M366 899h120l-108 -141h-77zM625 700v-420q0 -142 -77.5 -216t-199.5 -74t-200.5 74t-78.5 216v420h112v-421q0 -88 46 -137t121 -49q74 0 119.5 49t45.5 137v421h112z" />
    <glyph glyph-name="Ucircumflex" unicode="&#xdb;" horiz-adv-x="693" 
d="M281 768h-95l116 148h87l117 -148h-95l-60 82h-10zM625 700v-420q0 -142 -77.5 -216t-199.5 -74t-200.5 74t-78.5 216v420h112v-421q0 -88 46 -137t121 -49q74 0 119.5 49t45.5 137v421h112z" />
    <glyph glyph-name="Udieresis" unicode="&#xdc;" horiz-adv-x="693" 
d="M232 761q-28 0 -47.5 19.5t-19.5 46.5q0 28 19.5 47.5t47.5 19.5q27 0 46.5 -19.5t19.5 -47.5q0 -27 -19.5 -46.5t-46.5 -19.5zM463 761q-27 0 -46.5 19.5t-19.5 46.5q0 28 19.5 47.5t46.5 19.5t46.5 -19.5t19.5 -47.5q0 -27 -19.5 -46.5t-46.5 -19.5zM625 700v-420
q0 -142 -77.5 -216t-199.5 -74t-200.5 74t-78.5 216v420h112v-421q0 -88 46 -137t121 -49q74 0 119.5 49t45.5 137v421h112z" />
    <glyph glyph-name="Yacute" unicode="&#xdd;" horiz-adv-x="646" 
d="M342 899h120l-108 -141h-77zM499 700h128l-247 -378v-322h-113v322l-248 378h128l171 -261h9z" />
    <glyph glyph-name="Thorn" unicode="&#xde;" horiz-adv-x="607" 
d="M326 572q106 0 168 -60t62 -157q0 -102 -62.5 -160.5t-173.5 -58.5h-149v-136h-102v700h102v-128h155zM310 232q66 0 101.5 32.5t35.5 90.5q0 56 -35 88t-96 32h-145v-243h139z" />
    <glyph glyph-name="germandbls" unicode="&#xdf;" horiz-adv-x="567" 
d="M370 387q160 -46 160 -202q0 -88 -52.5 -141.5t-136.5 -53.5q-87 0 -138 51l40 66q39 -31 83 -31q45 0 76 32t31 89q0 67 -43.5 102.5t-116.5 35.5h-37v91h26q53 0 84 27.5t31 72.5q0 39 -28 66.5t-76 27.5q-46 0 -76 -36.5t-30 -100.5v-483h-103v485q0 104 55 164.5
t152 60.5q95 0 150 -48t55 -119q0 -104 -106 -149v-7z" />
    <glyph glyph-name="agrave" unicode="&#xe0;" horiz-adv-x="523" 
d="M301 555h-73l-103 135h114zM458 133q0 -27 10.5 -37.5t33.5 -10.5v-85h-19q-82 0 -101 66q-63 -76 -172 -76q-76 0 -123.5 37t-47.5 105q0 148 225 166l95 7v12q0 52 -25.5 82.5t-71.5 30.5q-47 0 -72.5 -27t-30.5 -64h-98q7 75 60 123t140 48q88 0 142.5 -52.5
t54.5 -147.5v-177zM222 73q55 0 96 35t41 97v26l-76 -6q-141 -11 -141 -87q0 -32 22.5 -48.5t57.5 -16.5z" />
    <glyph glyph-name="aacute" unicode="&#xe1;" horiz-adv-x="523" 
d="M401 690l-103 -135h-73l62 135h114zM458 133q0 -27 10.5 -37.5t33.5 -10.5v-85h-19q-82 0 -101 66q-63 -76 -172 -76q-76 0 -123.5 37t-47.5 105q0 148 225 166l95 7v12q0 52 -25.5 82.5t-71.5 30.5q-47 0 -72.5 -27t-30.5 -64h-98q7 75 60 123t140 48q88 0 142.5 -52.5
t54.5 -147.5v-177zM222 73q55 0 96 35t41 97v26l-76 -6q-141 -11 -141 -87q0 -32 22.5 -48.5t57.5 -16.5z" />
    <glyph glyph-name="acircumflex" unicode="&#xe2;" horiz-adv-x="523" 
d="M257 636l-58 -80h-93l113 144h85l114 -144h-93l-58 80h-10zM458 133q0 -27 10.5 -37.5t33.5 -10.5v-85h-19q-82 0 -101 66q-63 -76 -172 -76q-76 0 -123.5 37t-47.5 105q0 148 225 166l95 7v12q0 52 -25.5 82.5t-71.5 30.5q-47 0 -72.5 -27t-30.5 -64h-98q7 75 60 123
t140 48q88 0 142.5 -52.5t54.5 -147.5v-177zM222 73q55 0 96 35t41 97v26l-76 -6q-141 -11 -141 -87q0 -32 22.5 -48.5t57.5 -16.5z" />
    <glyph glyph-name="atilde" unicode="&#xe3;" horiz-adv-x="523" 
d="M198 602q-33 0 -54 -44l-57 29q10 33 37.5 61t70.5 28q36 0 74 -24t57 -24q35 0 55 43l57 -29q-9 -32 -36.5 -60t-71.5 -28q-36 0 -74 24t-58 24zM458 133q0 -27 10.5 -37.5t33.5 -10.5v-85h-19q-82 0 -101 66q-63 -76 -172 -76q-76 0 -123.5 37t-47.5 105q0 148 225 166
l95 7v12q0 52 -25.5 82.5t-71.5 30.5q-47 0 -72.5 -27t-30.5 -64h-98q7 75 60 123t140 48q88 0 142.5 -52.5t54.5 -147.5v-177zM222 73q55 0 96 35t41 97v26l-76 -6q-141 -11 -141 -87q0 -32 22.5 -48.5t57.5 -16.5z" />
    <glyph glyph-name="adieresis" unicode="&#xe4;" horiz-adv-x="523" 
d="M170 553q-25 0 -43 18t-18 43t17.5 42.5t43.5 17.5q25 0 42.5 -17.5t17.5 -42.5t-17.5 -43t-42.5 -18zM357 553q-24 0 -42 18t-18 43t18 42.5t42 17.5q25 0 42.5 -17t17.5 -43q0 -25 -17.5 -43t-42.5 -18zM458 133q0 -27 10.5 -37.5t33.5 -10.5v-85h-19q-82 0 -101 66
q-63 -76 -172 -76q-76 0 -123.5 37t-47.5 105q0 148 225 166l95 7v12q0 52 -25.5 82.5t-71.5 30.5q-47 0 -72.5 -27t-30.5 -64h-98q7 75 60 123t140 48q88 0 142.5 -52.5t54.5 -147.5v-177zM222 73q55 0 96 35t41 97v26l-76 -6q-141 -11 -141 -87q0 -32 22.5 -48.5
t57.5 -16.5z" />
    <glyph glyph-name="aring" unicode="&#xe5;" horiz-adv-x="523" 
d="M262 538q-40 0 -68.5 28.5t-28.5 67.5q0 40 28.5 68.5t68.5 28.5t69 -28.5t29 -68.5q0 -39 -29 -67.5t-69 -28.5zM263 673q-16 0 -27 -11.5t-11 -27.5q0 -15 11 -26.5t27 -11.5q15 0 26 11.5t11 26.5q0 16 -11 27.5t-26 11.5zM458 133q0 -27 10.5 -37.5t33.5 -10.5v-85
h-19q-82 0 -101 66q-63 -76 -172 -76q-76 0 -123.5 37t-47.5 105q0 148 225 166l95 7v12q0 52 -25.5 82.5t-71.5 30.5q-47 0 -72.5 -27t-30.5 -64h-98q7 75 60 123t140 48q88 0 142.5 -52.5t54.5 -147.5v-177zM222 73q55 0 96 35t41 97v26l-76 -6q-141 -11 -141 -87
q0 -32 22.5 -48.5t57.5 -16.5z" />
    <glyph glyph-name="ae" unicode="&#xe6;" horiz-adv-x="873" 
d="M831 225h-373v-8q8 -66 45.5 -103t104.5 -37q42 0 75.5 18.5t48.5 54.5h99q-18 -76 -80 -118t-144 -42q-139 0 -206 103q-26 -47 -77.5 -75t-113.5 -28q-76 0 -123.5 37t-47.5 105q0 80 57.5 123.5t171.5 43.5h91v18q0 52 -25.5 82.5t-71.5 30.5q-47 0 -72.5 -27
t-30.5 -64h-98q7 75 60 123t140 48q110 0 162 -76q70 76 176 76q107 0 174 -72t58 -213zM602 427q-55 0 -92.5 -33.5t-48.5 -91.5h274q-2 52 -38 88.5t-95 36.5zM222 73q55 0 96 35t41 97v18h-86q-131 0 -131 -85q0 -32 22.5 -48.5t57.5 -16.5z" />
    <glyph glyph-name="ccedilla" unicode="&#xe7;" horiz-adv-x="562" 
d="M523 173q-10 -76 -67 -125.5t-140 -56.5l-24 -35q38 7 69 -16.5t31 -65.5q0 -39 -26.5 -61.5t-75.5 -22.5q-32 0 -57 13.5t-34 25.5t-14 23l43 25q22 -36 60 -36q20 0 32 10.5t12 27.5q0 16 -12.5 26.5t-36.5 10.5q-14 0 -34 -10l-32 34l34 53q-100 12 -156 83t-56 173
q0 111 72 186t179 75q93 0 158 -54t73 -139h-103q-7 42 -41 71.5t-89 29.5q-65 0 -105.5 -47.5t-40.5 -121.5q0 -76 38.5 -122.5t110.5 -46.5q49 0 82.5 26t45.5 67h104z" />
    <glyph glyph-name="egrave" unicode="&#xe8;" horiz-adv-x="554" 
d="M318 555h-73l-103 135h114zM280 510q107 0 174 -72t58 -213h-374q6 -69 44 -108.5t107 -39.5q42 0 75.5 18.5t48.5 54.5h99q-18 -76 -80 -118t-144 -42q-115 0 -182 71.5t-67 190.5q0 113 68.5 185.5t172.5 72.5zM142 302h274q-2 52 -38 88.5t-95 36.5q-55 0 -92.5 -33.5
t-48.5 -91.5z" />
    <glyph glyph-name="eacute" unicode="&#xe9;" horiz-adv-x="554" 
d="M418 690l-103 -135h-73l62 135h114zM280 510q107 0 174 -72t58 -213h-374q6 -69 44 -108.5t107 -39.5q42 0 75.5 18.5t48.5 54.5h99q-18 -76 -80 -118t-144 -42q-115 0 -182 71.5t-67 190.5q0 113 68.5 185.5t172.5 72.5zM142 302h274q-2 52 -38 88.5t-95 36.5
q-55 0 -92.5 -33.5t-48.5 -91.5z" />
    <glyph glyph-name="ecircumflex" unicode="&#xea;" horiz-adv-x="554" 
d="M274 636l-58 -80h-93l113 144h85l114 -144h-93l-58 80h-10zM280 510q107 0 174 -72t58 -213h-374q6 -69 44 -108.5t107 -39.5q42 0 75.5 18.5t48.5 54.5h99q-18 -76 -80 -118t-144 -42q-115 0 -182 71.5t-67 190.5q0 113 68.5 185.5t172.5 72.5zM142 302h274
q-2 52 -38 88.5t-95 36.5q-55 0 -92.5 -33.5t-48.5 -91.5z" />
    <glyph glyph-name="edieresis" unicode="&#xeb;" horiz-adv-x="554" 
d="M187 553q-25 0 -43 18t-18 43t17.5 42.5t43.5 17.5q25 0 42.5 -17.5t17.5 -42.5t-17.5 -43t-42.5 -18zM374 553q-24 0 -42 18t-18 43t18 42.5t42 17.5q26 0 43 -17t17 -43q0 -25 -17.5 -43t-42.5 -18zM280 510q107 0 174 -72t58 -213h-374q6 -69 44 -108.5t107 -39.5
q42 0 75.5 18.5t48.5 54.5h99q-18 -76 -80 -118t-144 -42q-115 0 -182 71.5t-67 190.5q0 113 68.5 185.5t172.5 72.5zM142 302h274q-2 52 -38 88.5t-95 36.5q-55 0 -92.5 -33.5t-48.5 -91.5z" />
    <glyph glyph-name="igrave" unicode="&#xec;" horiz-adv-x="235" 
d="M94 690l62 -135h-73l-103 135h114zM169 500v-500h-103v500h103z" />
    <glyph glyph-name="iacute" unicode="&#xed;" horiz-adv-x="235" 
d="M142 690h114l-103 -135h-73zM169 500v-500h-103v500h103z" />
    <glyph glyph-name="icircumflex" unicode="&#xee;" horiz-adv-x="235" 
d="M54 556h-93l113 144h85l114 -144h-93l-58 80h-10zM169 500v-500h-103v500h103z" />
    <glyph glyph-name="idieresis" unicode="&#xef;" horiz-adv-x="235" 
d="M25 553q-25 0 -43 18t-18 43t17.5 42.5t43.5 17.5q25 0 42.5 -17.5t17.5 -42.5t-17.5 -43t-42.5 -18zM212 553q-24 0 -42 18t-18 43t18 42.5t42 17.5q26 0 43 -17t17 -43q0 -25 -17.5 -43t-42.5 -18zM169 500v-500h-103v500h103z" />
    <glyph glyph-name="eth" unicode="&#xf0;" horiz-adv-x="578" 
d="M415 625q112 -99 112 -310q0 -169 -69.5 -247t-183.5 -78q-109 0 -172 70.5t-63 189.5q0 114 68.5 187t168.5 73q96 0 146 -81q-20 106 -96 156l-133 -61l-19 46l92 42q-42 12 -96 12h-23v76h37q108 0 184 -42l113 51l18 -46zM280 83q65 0 105 47t40 120q0 74 -40.5 121
t-106.5 47q-63 0 -102 -48t-39 -120q0 -75 37 -121t106 -46z" />
    <glyph glyph-name="ntilde" unicode="&#xf1;" horiz-adv-x="570" 
d="M463 642q-9 -32 -36.5 -60t-71.5 -28q-36 0 -74 24t-58 24q-33 0 -54 -44l-57 29q10 33 37.5 61t70.5 28q36 0 74 -24t57 -24q35 0 55 43zM323 510q84 0 136.5 -56.5t52.5 -160.5v-293h-107v275q0 69 -32.5 104.5t-85.5 35.5q-48 0 -82 -34t-34 -102v-279h-107v500h81
l15 -62h10q50 72 153 72z" />
    <glyph glyph-name="ograve" unicode="&#xf2;" horiz-adv-x="591" 
d="M271 690l62 -135h-73l-103 135h114zM296 -10q-110 0 -183.5 74t-73.5 187q0 112 73 185.5t183 73.5t184 -73.5t74 -186.5t-73 -186.5t-184 -73.5zM296 82q68 0 110.5 48.5t42.5 119.5q0 70 -43 119t-111 49q-67 0 -109.5 -48.5t-42.5 -119.5t42.5 -119.5t110.5 -48.5z
" />
    <glyph glyph-name="oacute" unicode="&#xf3;" horiz-adv-x="591" 
d="M319 690h114l-103 -135h-73zM296 -10q-110 0 -183.5 74t-73.5 187q0 112 73 185.5t183 73.5t184 -73.5t74 -186.5t-73 -186.5t-184 -73.5zM296 82q68 0 110.5 48.5t42.5 119.5q0 70 -43 119t-111 49q-67 0 -109.5 -48.5t-42.5 -119.5t42.5 -119.5t110.5 -48.5z" />
    <glyph glyph-name="ocircumflex" unicode="&#xf4;" horiz-adv-x="591" 
d="M231 556h-93l113 144h85l114 -144h-93l-58 80h-10zM296 -10q-110 0 -183.5 74t-73.5 187q0 112 73 185.5t183 73.5t184 -73.5t74 -186.5t-73 -186.5t-184 -73.5zM296 82q68 0 110.5 48.5t42.5 119.5q0 70 -43 119t-111 49q-67 0 -109.5 -48.5t-42.5 -119.5t42.5 -119.5
t110.5 -48.5z" />
    <glyph glyph-name="otilde" unicode="&#xf5;" horiz-adv-x="591" 
d="M470 642q-9 -32 -36.5 -60t-71.5 -28q-36 0 -74 24t-58 24q-33 0 -54 -44l-57 29q10 33 37.5 61t70.5 28q36 0 74 -24t57 -24q35 0 55 43zM296 -10q-110 0 -183.5 74t-73.5 187q0 112 73 185.5t183 73.5t184 -73.5t74 -186.5t-73 -186.5t-184 -73.5zM296 82
q68 0 110.5 48.5t42.5 119.5q0 70 -43 119t-111 49q-67 0 -109.5 -48.5t-42.5 -119.5t42.5 -119.5t110.5 -48.5z" />
    <glyph glyph-name="odieresis" unicode="&#xf6;" horiz-adv-x="591" 
d="M202 553q-25 0 -43 18t-18 43t17.5 42.5t43.5 17.5q25 0 42.5 -17.5t17.5 -42.5t-17.5 -43t-42.5 -18zM389 553q-24 0 -42 18t-18 43t18 42.5t42 17.5q25 0 42.5 -17t17.5 -43q0 -25 -17.5 -43t-42.5 -18zM296 -10q-110 0 -183.5 74t-73.5 187q0 112 73 185.5t183 73.5
t184 -73.5t74 -186.5t-73 -186.5t-184 -73.5zM296 82q68 0 110.5 48.5t42.5 119.5q0 70 -43 119t-111 49q-67 0 -109.5 -48.5t-42.5 -119.5t42.5 -119.5t110.5 -48.5z" />
    <glyph glyph-name="divide" unicode="&#xf7;" horiz-adv-x="546" 
d="M274 389q-27 0 -47 19.5t-20 46.5t20 46.5t47 19.5t46.5 -19t19.5 -47q0 -27 -19.5 -46.5t-46.5 -19.5zM40 323h465v-86h-465v86zM274 30q-27 0 -47 19.5t-20 46.5t20 46.5t47 19.5t46.5 -19t19.5 -47q0 -27 -19.5 -46.5t-46.5 -19.5z" />
    <glyph glyph-name="oslash" unicode="&#xf8;" horiz-adv-x="591" 
d="M476 439q77 -74 77 -189q0 -113 -73 -186.5t-184 -73.5q-65 0 -121 28l-27 -37l-61 42l28 39q-76 74 -76 189q0 112 73 185.5t183 73.5q65 0 121 -28l28 39l61 -42zM143 250q0 -60 31 -105l186 259q-30 14 -65 14q-67 0 -109.5 -48.5t-42.5 -119.5zM296 82
q68 0 110.5 48.5t42.5 119.5q0 60 -32 106l-186 -260q30 -14 65 -14z" />
    <glyph glyph-name="ugrave" unicode="&#xf9;" horiz-adv-x="570" 
d="M259 690l62 -135h-73l-103 135h114zM249 -10q-83 0 -135.5 56.5t-52.5 160.5v293h107v-275q0 -69 32 -104.5t85 -35.5q48 0 81 34t33 102v279h108v-500h-82l-15 62h-9q-53 -72 -152 -72z" />
    <glyph glyph-name="uacute" unicode="&#xfa;" horiz-adv-x="570" 
d="M307 690h114l-103 -135h-73zM249 -10q-83 0 -135.5 56.5t-52.5 160.5v293h107v-275q0 -69 32 -104.5t85 -35.5q48 0 81 34t33 102v279h108v-500h-82l-15 62h-9q-53 -72 -152 -72z" />
    <glyph glyph-name="ucircumflex" unicode="&#xfb;" horiz-adv-x="570" 
d="M219 556h-93l113 144h85l114 -144h-93l-58 80h-10zM249 -10q-83 0 -135.5 56.5t-52.5 160.5v293h107v-275q0 -69 32 -104.5t85 -35.5q48 0 81 34t33 102v279h108v-500h-82l-15 62h-9q-53 -72 -152 -72z" />
    <glyph glyph-name="udieresis" unicode="&#xfc;" horiz-adv-x="570" 
d="M190 553q-25 0 -43 18t-18 43t17.5 42.5t43.5 17.5q25 0 42.5 -17.5t17.5 -42.5t-17.5 -43t-42.5 -18zM377 553q-24 0 -42 18t-18 43t18 42.5t42 17.5q25 0 42.5 -17t17.5 -43q0 -25 -17.5 -43t-42.5 -18zM249 -10q-83 0 -135.5 56.5t-52.5 160.5v293h107v-275
q0 -69 32 -104.5t85 -35.5q48 0 81 34t33 102v279h108v-500h-82l-15 62h-9q-53 -72 -152 -72z" />
    <glyph glyph-name="yacute" unicode="&#xfd;" horiz-adv-x="563" 
d="M307 690h114l-103 -135h-73zM430 500h107l-188 -556q-24 -74 -66.5 -114t-118.5 -40q-79 0 -120 44l42 73q36 -29 74 -29q30 0 53.5 22.5t35.5 57.5l14 42h-40l-196 500h111l151 -395h10z" />
    <glyph glyph-name="thorn" unicode="&#xfe;" horiz-adv-x="587" 
d="M320 510q98 0 163 -72.5t65 -187.5q0 -116 -67 -188t-166 -72q-107 0 -150 77v-267h-101v910h98v-269h10q56 69 148 69zM304 83q63 0 102.5 46.5t39.5 120.5q0 73 -40 120t-102 47t-100.5 -46.5t-38.5 -120.5t38.5 -120.5t100.5 -46.5z" />
    <glyph glyph-name="ydieresis" unicode="&#xff;" horiz-adv-x="563" 
d="M190 553q-25 0 -43 18t-18 43t17.5 42.5t43.5 17.5q25 0 42.5 -17.5t17.5 -42.5t-17.5 -43t-42.5 -18zM377 553q-24 0 -42 18t-18 43t18 42.5t42 17.5q25 0 42.5 -17t17.5 -43q0 -25 -17.5 -43t-42.5 -18zM430 500h107l-188 -556q-24 -74 -66.5 -114t-118.5 -40
q-79 0 -120 44l42 73q36 -29 74 -29q30 0 53.5 22.5t35.5 57.5l14 42h-40l-196 500h111l151 -395h10z" />
    <glyph glyph-name="Amacron" unicode="&#x100;" horiz-adv-x="657" 
d="M492 841v-75h-327v75h327zM523 0l-56 171h-277l-56 -171h-115l239 700h141l239 -700h-115zM220 264h217l-104 318h-9z" />
    <glyph glyph-name="amacron" unicode="&#x101;" horiz-adv-x="523" 
d="M419 649v-72h-311v72h311zM458 133q0 -27 10.5 -37.5t33.5 -10.5v-85h-19q-82 0 -101 66q-63 -76 -172 -76q-76 0 -123.5 37t-47.5 105q0 148 225 166l95 7v12q0 52 -25.5 82.5t-71.5 30.5q-47 0 -72.5 -27t-30.5 -64h-98q7 75 60 123t140 48q88 0 142.5 -52.5
t54.5 -147.5v-177zM222 73q55 0 96 35t41 97v26l-76 -6q-141 -11 -141 -87q0 -32 22.5 -48.5t57.5 -16.5z" />
    <glyph glyph-name="Abreve" unicode="&#x102;" horiz-adv-x="657" 
d="M331 760q-61 0 -101.5 37.5t-40.5 88.5h81q0 -26 17 -43.5t45 -17.5q27 0 43 17.5t16 43.5h80q0 -51 -39.5 -88.5t-100.5 -37.5zM523 0l-56 171h-277l-56 -171h-115l239 700h141l239 -700h-115zM220 264h217l-104 318h-9z" />
    <glyph glyph-name="abreve" unicode="&#x103;" horiz-adv-x="523" 
d="M263 570q-58 0 -96.5 35.5t-38.5 84.5h77q0 -25 16 -42t43 -17q26 0 41.5 16.5t15.5 42.5h76q0 -49 -38 -84.5t-96 -35.5zM458 133q0 -27 10.5 -37.5t33.5 -10.5v-85h-19q-82 0 -101 66q-63 -76 -172 -76q-76 0 -123.5 37t-47.5 105q0 148 225 166l95 7v12
q0 52 -25.5 82.5t-71.5 30.5q-47 0 -72.5 -27t-30.5 -64h-98q7 75 60 123t140 48q88 0 142.5 -52.5t54.5 -147.5v-177zM222 73q55 0 96 35t41 97v26l-76 -6q-141 -11 -141 -87q0 -32 22.5 -48.5t57.5 -16.5z" />
    <glyph glyph-name="Aogonek" unicode="&#x104;" horiz-adv-x="657" 
d="M567 -73q0 -26 19.5 -39t45 -11.5t45.5 12.5v-63q-19 -13 -60 -13q-48 0 -81.5 27t-33.5 74q0 52 57 86h-36l-56 171h-277l-56 -171h-115l239 700h141l239 -700q-30 -8 -50.5 -29t-20.5 -44zM220 264h217l-104 318h-9z" />
    <glyph glyph-name="aogonek" unicode="&#x105;" horiz-adv-x="523" 
d="M433 -71q0 -38 39.5 -47t67.5 10v-61q-17 -13 -58 -13q-47 0 -79.5 26t-32.5 72q0 57 68 90q-42 14 -56 60q-63 -76 -172 -76q-76 0 -123.5 37t-47.5 105q0 148 225 166l95 7v12q0 52 -25.5 82.5t-71.5 30.5q-47 0 -72.5 -27t-30.5 -64h-98q7 75 60 123t140 48
q88 0 142.5 -52.5t54.5 -147.5v-177q0 -27 10.5 -37.5t33.5 -10.5v-85q-29 -8 -49 -28.5t-20 -42.5zM222 73q55 0 96 35t41 97v26l-76 -6q-141 -11 -141 -87q0 -32 22.5 -48.5t57.5 -16.5z" />
    <glyph glyph-name="Cacute" unicode="&#x106;" horiz-adv-x="730" 
d="M402 899h120l-108 -141h-77zM684 217q-21 -104 -102.5 -165.5t-193.5 -61.5q-154 0 -245.5 100t-91.5 259q0 157 90.5 259t235.5 102q112 0 193.5 -58.5t100.5 -171.5h-113q-16 60 -62.5 94t-116.5 34q-96 0 -154.5 -74.5t-58.5 -184.5q0 -116 60 -187t162 -71
q66 0 115 34.5t68 91.5h113z" />
    <glyph glyph-name="cacute" unicode="&#x107;" horiz-adv-x="562" 
d="M311 690h114l-103 -135h-73zM523 173q-11 -81 -75 -132t-156 -51q-118 0 -185.5 73t-67.5 186q0 111 72 186t179 75q93 0 158 -54t73 -139h-103q-7 42 -41 71.5t-89 29.5q-65 0 -105.5 -47.5t-40.5 -121.5q0 -76 38.5 -122.5t110.5 -46.5q49 0 82.5 26t45.5 67h104z" />
    <glyph glyph-name="Ccircumflex" unicode="&#x108;" horiz-adv-x="730" 
d="M317 768h-95l116 148h87l117 -148h-95l-60 82h-10zM684 217q-21 -104 -102.5 -165.5t-193.5 -61.5q-154 0 -245.5 100t-91.5 259q0 157 90.5 259t235.5 102q112 0 193.5 -58.5t100.5 -171.5h-113q-16 60 -62.5 94t-116.5 34q-96 0 -154.5 -74.5t-58.5 -184.5
q0 -116 60 -187t162 -71q66 0 115 34.5t68 91.5h113z" />
    <glyph glyph-name="ccircumflex" unicode="&#x109;" horiz-adv-x="562" 
d="M223 556h-93l113 144h85l114 -144h-93l-58 80h-10zM523 173q-11 -81 -75 -132t-156 -51q-118 0 -185.5 73t-67.5 186q0 111 72 186t179 75q93 0 158 -54t73 -139h-103q-7 42 -41 71.5t-89 29.5q-65 0 -105.5 -47.5t-40.5 -121.5q0 -76 38.5 -122.5t110.5 -46.5
q49 0 82.5 26t45.5 67h104z" />
    <glyph glyph-name="Cdotaccent" unicode="&#x10a;" horiz-adv-x="730" 
d="M381 772q-31 0 -53.5 22t-22.5 53t22.5 53t53.5 22t52.5 -22t21.5 -53t-21.5 -53t-52.5 -22zM684 217q-21 -104 -102.5 -165.5t-193.5 -61.5q-154 0 -245.5 100t-91.5 259q0 157 90.5 259t235.5 102q112 0 193.5 -58.5t100.5 -171.5h-113q-16 60 -62.5 94t-116.5 34
q-96 0 -154.5 -74.5t-58.5 -184.5q0 -116 60 -187t162 -71q66 0 115 34.5t68 91.5h113z" />
    <glyph glyph-name="cdotaccent" unicode="&#x10b;" horiz-adv-x="562" 
d="M287 571q-28 0 -48.5 20t-20.5 48t20.5 48t48.5 20t47.5 -20t19.5 -48t-19.5 -48t-47.5 -20zM523 173q-11 -81 -75 -132t-156 -51q-118 0 -185.5 73t-67.5 186q0 111 72 186t179 75q93 0 158 -54t73 -139h-103q-7 42 -41 71.5t-89 29.5q-65 0 -105.5 -47.5t-40.5 -121.5
q0 -76 38.5 -122.5t110.5 -46.5q49 0 82.5 26t45.5 67h104z" />
    <glyph glyph-name="Ccaron" unicode="&#x10c;" horiz-adv-x="730" 
d="M448 907h95l-116 -148h-87l-117 148h95l60 -82h10zM684 217q-21 -104 -102.5 -165.5t-193.5 -61.5q-154 0 -245.5 100t-91.5 259q0 157 90.5 259t235.5 102q112 0 193.5 -58.5t100.5 -171.5h-113q-16 60 -62.5 94t-116.5 34q-96 0 -154.5 -74.5t-58.5 -184.5
q0 -116 60 -187t162 -71q66 0 115 34.5t68 91.5h113z" />
    <glyph glyph-name="ccaron" unicode="&#x10d;" horiz-adv-x="562" 
d="M350 700h93l-113 -144h-85l-114 144h93l58 -80h10zM523 173q-11 -81 -75 -132t-156 -51q-118 0 -185.5 73t-67.5 186q0 111 72 186t179 75q93 0 158 -54t73 -139h-103q-7 42 -41 71.5t-89 29.5q-65 0 -105.5 -47.5t-40.5 -121.5q0 -76 38.5 -122.5t110.5 -46.5
q49 0 82.5 26t45.5 67h104z" />
    <glyph glyph-name="Dcaron" unicode="&#x10e;" horiz-adv-x="683" 
d="M390 907h95l-116 -148h-87l-117 148h95l60 -82h10zM283 700q166 0 257.5 -93t91.5 -254q0 -165 -90.5 -259t-258.5 -94h-214v700h214zM282 101q117 0 179 68.5t62 186.5q0 110 -62.5 176.5t-178.5 66.5h-105v-498h105z" />
    <glyph glyph-name="dcaron" unicode="&#x10f;" horiz-adv-x="587" 
d="M422 712h101v-712h-77l-15 66h-11q-55 -76 -153 -76t-163 72.5t-65 187.5q0 116 67 188t166 72q107 0 150 -77v279zM598 700h90l-36 -180h-68zM283 83q62 0 100.5 46.5t38.5 120.5t-38.5 120.5t-100.5 46.5q-63 0 -102.5 -46.5t-39.5 -120.5q0 -73 40 -120t102 -47z" />
    <glyph glyph-name="Dcroat" unicode="&#x110;" horiz-adv-x="683" 
d="M283 700q166 0 257.5 -93t91.5 -254q0 -165 -90.5 -259t-258.5 -94h-214v313h-107v80h107v307h214zM282 101q117 0 179 68.5t62 186.5q0 110 -62.5 176.5t-178.5 66.5h-105v-206h171v-80h-171v-212h105z" />
    <glyph glyph-name="dcroat" unicode="&#x111;" horiz-adv-x="587" 
d="M607 642v-75h-84v-567h-77l-15 66h-11q-55 -76 -153 -76t-163 72.5t-65 187.5q0 116 67 188t166 72q107 0 150 -77v134h-132v75h132v70h101v-70h84zM283 83q62 0 100.5 46.5t38.5 120.5t-38.5 120.5t-100.5 46.5q-63 0 -102.5 -46.5t-39.5 -120.5q0 -73 40 -120t102 -47z
" />
    <glyph glyph-name="Emacron" unicode="&#x112;" horiz-adv-x="557" 
d="M130 841h327v-75h-327v75zM173 99h355v-99h-459v700h449v-98h-345v-200h302v-94h-302v-209z" />
    <glyph glyph-name="emacron" unicode="&#x113;" horiz-adv-x="554" 
d="M436 649v-72h-311v72h311zM280 510q107 0 174 -72t58 -213h-374q6 -69 44 -108.5t107 -39.5q42 0 75.5 18.5t48.5 54.5h99q-18 -76 -80 -118t-144 -42q-115 0 -182 71.5t-67 190.5q0 113 68.5 185.5t172.5 72.5zM142 302h274q-2 52 -38 88.5t-95 36.5q-55 0 -92.5 -33.5
t-48.5 -91.5z" />
    <glyph glyph-name="Ebreve" unicode="&#x114;" horiz-adv-x="557" 
d="M436 886q0 -51 -39.5 -88.5t-100.5 -37.5t-101.5 37.5t-40.5 88.5h81q0 -26 17 -43.5t45 -17.5q27 0 43 17.5t16 43.5h80zM173 99h355v-99h-459v700h449v-98h-345v-200h302v-94h-302v-209z" />
    <glyph glyph-name="ebreve" unicode="&#x115;" horiz-adv-x="554" 
d="M280 570q-58 0 -96.5 35.5t-38.5 84.5h77q0 -25 16 -42t43 -17q26 0 41.5 16.5t15.5 42.5h76q0 -49 -38 -84.5t-96 -35.5zM280 510q107 0 174 -72t58 -213h-374q6 -69 44 -108.5t107 -39.5q42 0 75.5 18.5t48.5 54.5h99q-18 -76 -80 -118t-144 -42q-115 0 -182 71.5
t-67 190.5q0 113 68.5 185.5t172.5 72.5zM142 302h274q-2 52 -38 88.5t-95 36.5q-55 0 -92.5 -33.5t-48.5 -91.5z" />
    <glyph glyph-name="Edotaccent" unicode="&#x116;" horiz-adv-x="557" 
d="M292 772q-31 0 -53.5 22t-22.5 53t22.5 53t53.5 22t52.5 -22t21.5 -53t-21.5 -53t-52.5 -22zM173 99h355v-99h-459v700h449v-98h-345v-200h302v-94h-302v-209z" />
    <glyph glyph-name="edotaccent" unicode="&#x117;" horiz-adv-x="554" 
d="M280 571q-28 0 -48.5 20t-20.5 48t20.5 48t48.5 20t47.5 -20t19.5 -48t-19.5 -48t-47.5 -20zM280 510q107 0 174 -72t58 -213h-374q6 -69 44 -108.5t107 -39.5q42 0 75.5 18.5t48.5 54.5h99q-18 -76 -80 -118t-144 -42q-115 0 -182 71.5t-67 190.5q0 113 68.5 185.5
t172.5 72.5zM142 302h274q-2 52 -38 88.5t-95 36.5q-55 0 -92.5 -33.5t-48.5 -91.5z" />
    <glyph glyph-name="Eogonek" unicode="&#x118;" horiz-adv-x="557" 
d="M457 -74q0 -26 19.5 -39t45 -11.5t45.5 12.5v-63q-19 -13 -60 -13q-48 0 -81.5 27t-33.5 74q0 53 59 87h-382v700h449v-98h-345v-200h302v-94h-302v-209h355v-99h-2l2 -1q-30 -8 -50.5 -29t-20.5 -44z" />
    <glyph glyph-name="eogonek" unicode="&#x119;" horiz-adv-x="554" 
d="M280 510q107 0 174 -72t58 -213h-371q5 -68 42 -108t106 -40q42 0 75.5 18.5t48.5 54.5h99q-13 -56 -51 -94t-92 -54q-28 -9 -45.5 -29.5t-17.5 -41.5q0 -26 19 -39.5t43.5 -12t43.5 12.5v-61q-17 -13 -58 -13q-46 0 -79 25t-33 68q0 49 45 80q-4 -1 -12 -1
q-106 0 -171 73t-65 189q0 113 68.5 185.5t172.5 72.5zM144 302h272q-2 52 -38 88.5t-95 36.5q-54 0 -91 -34.5t-48 -90.5z" />
    <glyph glyph-name="Ecaron" unicode="&#x11a;" horiz-adv-x="557" 
d="M359 907h95l-116 -148h-87l-117 148h95l60 -82h10zM173 99h355v-99h-459v700h449v-98h-345v-200h302v-94h-302v-209z" />
    <glyph glyph-name="ecaron" unicode="&#x11b;" horiz-adv-x="554" 
d="M323 556h-85l-114 144h93l58 -80h10l58 80h93zM280 510q107 0 174 -72t58 -213h-374q6 -69 44 -108.5t107 -39.5q42 0 75.5 18.5t48.5 54.5h99q-18 -76 -80 -118t-144 -42q-115 0 -182 71.5t-67 190.5q0 113 68.5 185.5t172.5 72.5zM142 302h274q-2 52 -38 88.5t-95 36.5
q-55 0 -92.5 -33.5t-48.5 -91.5z" />
    <glyph glyph-name="Gcircumflex" unicode="&#x11c;" horiz-adv-x="738" 
d="M304 768h-95l116 148h87l117 -148h-95l-60 82h-10zM359 369h309v-369h-73l-17 74h-9q-29 -31 -81.5 -57.5t-126.5 -26.5q-145 0 -227.5 96.5t-82.5 248.5q0 164 90 269.5t233 105.5q129 0 202.5 -62.5t87.5 -161.5h-112q-12 52 -57 87.5t-116 35.5q-99 0 -158.5 -75.5
t-59.5 -193.5q0 -112 57 -181.5t165 -69.5q58 0 104.5 24t73.5 54v115h-202v87z" />
    <glyph glyph-name="gcircumflex" unicode="&#x11d;" horiz-adv-x="536" 
d="M257 636l-58 -80h-93l113 144h85l114 -144h-93l-58 80h-10zM510 478q-25 -29 -79 -52q26 -41 26 -93q0 -74 -55.5 -119t-142.5 -45q-39 0 -77 11q-36 -16 -36 -38q0 -42 79 -42h82q88 0 134.5 -39t46.5 -108q0 -74 -60 -118.5t-162 -44.5q-108 0 -168 52.5t-59 126.5
l75 61q-61 25 -61 87q0 61 69 95q-59 46 -59 124q0 76 53 125t139 49q75 0 127 -35q42 23 77 68zM261 244q43 0 70 27.5t27 68.5t-26.5 68.5t-69.5 27.5q-44 0 -71.5 -27.5t-27.5 -69.5q0 -40 27.5 -67.5t70.5 -27.5zM387 -51q0 35 -26.5 52.5t-70.5 17.5h-79l-72 -57
q17 -89 132 -89q52 0 84 20t32 56z" />
    <glyph glyph-name="Gbreve" unicode="&#x11e;" horiz-adv-x="738" 
d="M512 886q0 -51 -39.5 -88.5t-100.5 -37.5t-101.5 37.5t-40.5 88.5h81q0 -26 17 -43.5t45 -17.5q27 0 43 17.5t16 43.5h80zM359 369h309v-369h-73l-17 74h-9q-29 -31 -81.5 -57.5t-126.5 -26.5q-145 0 -227.5 96.5t-82.5 248.5q0 164 90 269.5t233 105.5
q129 0 202.5 -62.5t87.5 -161.5h-112q-12 52 -57 87.5t-116 35.5q-99 0 -158.5 -75.5t-59.5 -193.5q0 -112 57 -181.5t165 -69.5q58 0 104.5 24t73.5 54v115h-202v87z" />
    <glyph glyph-name="gbreve" unicode="&#x11f;" horiz-adv-x="536" 
d="M263 570q-58 0 -96.5 35.5t-38.5 84.5h77q0 -25 16 -42t43 -17q26 0 41.5 16.5t15.5 42.5h76q0 -49 -38 -84.5t-96 -35.5zM510 478q-25 -29 -79 -52q26 -41 26 -93q0 -74 -55.5 -119t-142.5 -45q-39 0 -77 11q-36 -16 -36 -38q0 -42 79 -42h82q88 0 134.5 -39t46.5 -108
q0 -74 -60 -118.5t-162 -44.5q-108 0 -168 52.5t-59 126.5l75 61q-61 25 -61 87q0 61 69 95q-59 46 -59 124q0 76 53 125t139 49q75 0 127 -35q42 23 77 68zM261 244q43 0 70 27.5t27 68.5t-26.5 68.5t-69.5 27.5q-44 0 -71.5 -27.5t-27.5 -69.5q0 -40 27.5 -67.5
t70.5 -27.5zM387 -51q0 35 -26.5 52.5t-70.5 17.5h-79l-72 -57q17 -89 132 -89q52 0 84 20t32 56z" />
    <glyph glyph-name="Gdotaccent" unicode="&#x120;" horiz-adv-x="738" 
d="M368 772q-31 0 -53.5 22t-22.5 53t22.5 53t53.5 22t52.5 -22t21.5 -53t-21.5 -53t-52.5 -22zM359 369h309v-369h-73l-17 74h-9q-29 -31 -81.5 -57.5t-126.5 -26.5q-145 0 -227.5 96.5t-82.5 248.5q0 164 90 269.5t233 105.5q129 0 202.5 -62.5t87.5 -161.5h-112
q-12 52 -57 87.5t-116 35.5q-99 0 -158.5 -75.5t-59.5 -193.5q0 -112 57 -181.5t165 -69.5q58 0 104.5 24t73.5 54v115h-202v87z" />
    <glyph glyph-name="gdotaccent" unicode="&#x121;" horiz-adv-x="536" 
d="M263 571q-28 0 -48.5 20t-20.5 48t20.5 48t48.5 20t47.5 -20t19.5 -48t-19.5 -48t-47.5 -20zM510 478q-25 -29 -79 -52q26 -41 26 -93q0 -74 -55.5 -119t-142.5 -45q-39 0 -77 11q-36 -16 -36 -38q0 -42 79 -42h82q88 0 134.5 -39t46.5 -108q0 -74 -60 -118.5t-162 -44.5
q-108 0 -168 52.5t-59 126.5l75 61q-61 25 -61 87q0 61 69 95q-59 46 -59 124q0 76 53 125t139 49q75 0 127 -35q42 23 77 68zM261 244q43 0 70 27.5t27 68.5t-26.5 68.5t-69.5 27.5q-44 0 -71.5 -27.5t-27.5 -69.5q0 -40 27.5 -67.5t70.5 -27.5zM387 -51q0 35 -26.5 52.5
t-70.5 17.5h-79l-72 -57q17 -89 132 -89q52 0 84 20t32 56z" />
    <glyph glyph-name="Gcommaaccent" unicode="&#x122;" horiz-adv-x="738" 
d="M359 369h309v-369h-73l-17 74h-9q-29 -31 -81.5 -57.5t-126.5 -26.5q-145 0 -227.5 96.5t-82.5 248.5q0 164 90 269.5t233 105.5q129 0 202.5 -62.5t87.5 -161.5h-112q-12 52 -57 87.5t-116 35.5q-99 0 -158.5 -75.5t-59.5 -193.5q0 -112 57 -181.5t165 -69.5
q58 0 104.5 24t73.5 54v115h-202v87zM368 -56q34 0 53 -25.5t19 -65.5q0 -60 -33 -104.5t-77 -66.5l-24 30q61 48 62 98q-27 -4 -47 14.5t-20 51.5q0 31 18.5 49.5t48.5 18.5z" />
    <glyph glyph-name="gcommaaccent" unicode="&#x123;" horiz-adv-x="536" 
d="M264 556q-33 0 -51.5 25t-18.5 64q0 58 32 101.5t75 65.5l24 -30q-60 -47 -61 -95q26 4 46 -14t20 -50q0 -30 -18.5 -48.5t-47.5 -18.5zM510 478q-25 -29 -79 -52q26 -41 26 -93q0 -74 -55.5 -119t-142.5 -45q-39 0 -77 11q-36 -16 -36 -38q0 -42 79 -42h82
q88 0 134.5 -39t46.5 -108q0 -74 -60 -118.5t-162 -44.5q-108 0 -168 52.5t-59 126.5l75 61q-61 25 -61 87q0 61 69 95q-59 46 -59 124q0 76 53 125t139 49q75 0 127 -35q42 23 77 68zM261 244q43 0 70 27.5t27 68.5t-26.5 68.5t-69.5 27.5q-44 0 -71.5 -27.5t-27.5 -69.5
q0 -40 27.5 -67.5t70.5 -27.5zM387 -51q0 35 -26.5 52.5t-70.5 17.5h-79l-72 -57q17 -89 132 -89q52 0 84 20t32 56z" />
    <glyph glyph-name="Hcircumflex" unicode="&#x124;" horiz-adv-x="673" 
d="M269 768h-95l116 148h87l117 -148h-95l-60 82h-10zM496 700h108v-700h-108v305h-319v-305h-108v700h108v-297h319v297z" />
    <glyph glyph-name="hcircumflex" unicode="&#x125;" horiz-adv-x="581" 
d="M227 768h-95l116 148h87l117 -148h-95l-60 82h-10zM330 510q90 0 141 -55t51 -155v-300h-105v265q0 71 -32.5 109.5t-92.5 38.5q-49 0 -84.5 -36t-35.5 -101v-276h-108v710h108v-268h10q22 27 60.5 47.5t87.5 20.5z" />
    <glyph glyph-name="Hbar" unicode="&#x126;" horiz-adv-x="673" 
d="M496 700h108v-700h-108v305h-319v-305h-108v700h108v-107h319v107zM177 403h319v104h-319v-104z" />
    <glyph glyph-name="hbar" unicode="&#x127;" horiz-adv-x="581" 
d="M330 510q90 0 141 -55t51 -155v-300h-105v265q0 71 -32.5 109.5t-92.5 38.5q-49 0 -84.5 -36t-35.5 -101v-276h-108v567h-87v75h87v68h108v-68h122v-75h-122v-125h10q22 27 60.5 47.5t87.5 20.5z" />
    <glyph glyph-name="Itilde" unicode="&#x128;" horiz-adv-x="249" 
d="M309 854q-9 -33 -38 -62.5t-75 -29.5q-38 0 -78 25t-61 25q-34 0 -57 -46l-59 30q10 34 39 64t74 30q38 0 77.5 -25.5t60.5 -25.5q37 0 57 46zM180 700v-700h-111v700h111z" />
    <glyph glyph-name="itilde" unicode="&#x129;" horiz-adv-x="235" 
d="M293 642q-9 -32 -36.5 -60t-71.5 -28q-36 0 -74 24t-58 24q-33 0 -54 -44l-57 29q10 33 37.5 61t70.5 28q36 0 74 -24t57 -24q35 0 55 43zM169 500v-500h-103v500h103z" />
    <glyph glyph-name="Imacron" unicode="&#x12a;" horiz-adv-x="249" 
d="M-39 841h327v-75h-327v75zM180 700v-700h-111v700h111z" />
    <glyph glyph-name="imacron" unicode="&#x12b;" horiz-adv-x="235" 
d="M-37 649h311v-72h-311v72zM169 500v-500h-103v500h103z" />
    <glyph glyph-name="Ibreve" unicode="&#x12c;" horiz-adv-x="249" 
d="M267 886q0 -51 -39.5 -88.5t-100.5 -37.5t-101.5 37.5t-40.5 88.5h81q0 -26 17 -43.5t45 -17.5q27 0 43 17.5t16 43.5h80zM180 700v-700h-111v700h111z" />
    <glyph glyph-name="ibreve" unicode="&#x12d;" horiz-adv-x="235" 
d="M252 690q0 -49 -38 -84.5t-96 -35.5t-96.5 35.5t-38.5 84.5h77q0 -25 16 -42t43 -17q26 0 41.5 16.5t15.5 42.5h76zM169 500v-500h-103v500h103z" />
    <glyph glyph-name="Iogonek" unicode="&#x12e;" horiz-adv-x="249" 
d="M109 -73q0 -26 19.5 -39t45 -11.5t45.5 12.5v-63q-19 -13 -60 -13q-48 0 -81.5 27t-33.5 74q0 52 57 86h-32v700h111v-700q-30 -8 -50.5 -29t-20.5 -44z" />
    <glyph glyph-name="iogonek" unicode="&#x12f;" horiz-adv-x="235" 
d="M118 571q-28 0 -48.5 20t-20.5 48t20.5 48t48.5 20t47.5 -20t19.5 -48t-19.5 -48t-47.5 -20zM101 -71q0 -38 39.5 -47t67.5 10v-61q-17 -13 -58 -13q-47 0 -79.5 26t-32.5 72q0 52 56 84h-28v500h103v-499l1 -1q-29 -8 -49 -28.5t-20 -42.5z" />
    <glyph glyph-name="Idotaccent" unicode="&#x130;" horiz-adv-x="249" 
d="M123 772q-31 0 -53.5 22t-22.5 53t22.5 53t53.5 22t52.5 -22t21.5 -53t-21.5 -53t-52.5 -22zM180 700v-700h-111v700h111z" />
    <glyph glyph-name="dotlessi" unicode="&#x131;" horiz-adv-x="235" 
d="M169 500v-500h-103v500h103z" />
    <glyph glyph-name="IJ" unicode="&#x132;" horiz-adv-x="782" 
d="M180 700v-700h-111v700h111zM387 205q4 -50 32 -82t78 -32q48 0 78.5 33t30.5 97v479h107v-487q0 -105 -60 -164t-153 -59q-101 0 -158.5 59t-60.5 156h106z" />
    <glyph glyph-name="ij" unicode="&#x133;" horiz-adv-x="475" 
d="M118 571q-28 0 -48.5 20t-20.5 48t20.5 48t48.5 20t47.5 -20t19.5 -48t-19.5 -48t-47.5 -20zM359 571q-28 0 -48.5 20t-20.5 48t20.5 48t48.5 20t47.5 -20t19.5 -48t-19.5 -48t-47.5 -20zM169 500v-500h-103v500h103zM193 -95q26 -24 58 -24q56 0 56 68v551h102v-561
q0 -69 -39.5 -109t-101.5 -40q-72 0 -108 36z" />
    <glyph glyph-name="Jcircumflex" unicode="&#x134;" horiz-adv-x="529" 
d="M341 768h-95l116 148h87l117 -148h-95l-60 82h-10zM134 205q4 -50 32 -82t78 -32q48 0 78.5 33t30.5 97v479h107v-487q0 -105 -60 -164t-153 -59q-101 0 -158.5 59t-60.5 156h106z" />
    <glyph glyph-name="jcircumflex" unicode="&#x135;" horiz-adv-x="265" 
d="M84 556h-93l113 144h85l114 -144h-93l-58 80h-10zM-17 -95q26 -24 58 -24q56 0 56 68v551h102v-561q0 -69 -39.5 -109t-101.5 -40q-72 0 -108 36z" />
    <glyph glyph-name="Kcommaaccent" unicode="&#x136;" horiz-adv-x="614" 
d="M470 0l-246 307h-47v-307h-108v700h108v-288h47l218 288h126l-254 -336v-8l281 -356h-125zM307 -56q34 0 53 -25.5t19 -65.5q0 -60 -33 -104.5t-77 -66.5l-24 30q61 48 62 98q-27 -4 -47 14.5t-20 51.5q0 31 18.5 49.5t48.5 18.5z" />
    <glyph glyph-name="kcommaaccent" unicode="&#x137;" horiz-adv-x="525" 
d="M499 500l-202 -209l202 -291h-117l-154 219l-62 -64v-155h-102v710h102v-414h9l194 204h130zM270 -56q33 0 51.5 -25t18.5 -64q0 -58 -32 -101.5t-75 -65.5l-24 30q60 47 61 95q-26 -4 -46 14t-20 50q0 30 18.5 48.5t47.5 18.5z" />
    <glyph glyph-name="Lacute" unicode="&#x139;" horiz-adv-x="564" 
d="M145 899h120l-108 -141h-77zM182 104h353v-104h-466v700h113v-596z" />
    <glyph glyph-name="lacute" unicode="&#x13a;" horiz-adv-x="232" 
d="M254 890l-103 -135h-73l62 135h114zM64 0v710h104v-710h-104z" />
    <glyph glyph-name="Lcommaaccent" unicode="&#x13b;" horiz-adv-x="564" 
d="M182 104h353v-104h-466v700h113v-596zM300 -56q34 0 53 -25.5t19 -65.5q0 -60 -33 -104.5t-77 -66.5l-24 30q61 48 62 98q-27 -4 -47 14.5t-20 51.5q0 31 18.5 49.5t48.5 18.5z" />
    <glyph glyph-name="lcommaaccent" unicode="&#x13c;" horiz-adv-x="232" 
d="M168 710v-710h-104v710h104zM114 -56q33 0 51.5 -25t18.5 -64q0 -58 -32 -101.5t-75 -65.5l-24 30q60 47 61 95q-26 -4 -46 14t-20 50q0 30 18.5 48.5t47.5 18.5z" />
    <glyph glyph-name="Lcaron" unicode="&#x13d;" horiz-adv-x="564" 
d="M182 104h353v-104h-466v700h113v-596zM284 700h110l-44 -206h-83z" />
    <glyph glyph-name="lcaron" unicode="&#x13e;" horiz-adv-x="232" 
d="M64 0v710h104v-710h-104zM250 700h90l-36 -180h-68z" />
    <glyph glyph-name="Ldot" unicode="&#x13f;" horiz-adv-x="564" 
d="M182 104h353v-104h-466v700h113v-596zM366 347q-31 0 -53.5 22t-22.5 53t22.5 53t53.5 22t52.5 -22t21.5 -53t-21.5 -53t-52.5 -22z" />
    <glyph glyph-name="ldot" unicode="&#x140;" horiz-adv-x="232" 
d="M116 771q-28 0 -48.5 20t-20.5 48t20.5 48t48.5 20t47.5 -20t19.5 -48t-19.5 -48t-47.5 -20zM64 0v710h104v-710h-104z" />
    <glyph glyph-name="Lslash" unicode="&#x141;" horiz-adv-x="564" 
d="M182 104h353v-104h-466v252l-94 -48v97l94 48v351h113v-293l174 90v-97l-174 -90v-206z" />
    <glyph glyph-name="lslash" unicode="&#x142;" horiz-adv-x="232" 
d="M246 501v-92l-78 -47v-362h-104v300l-79 -47v91l79 48v318h104v-256z" />
    <glyph glyph-name="Nacute" unicode="&#x143;" horiz-adv-x="706" 
d="M372 899h120l-108 -141h-77zM533 700h104v-700h-110l-345 512h-9v-512h-104v700h116l338 -509h10v509z" />
    <glyph glyph-name="nacute" unicode="&#x144;" horiz-adv-x="570" 
d="M312 690h114l-103 -135h-73zM323 510q84 0 136.5 -56.5t52.5 -160.5v-293h-107v275q0 69 -32.5 104.5t-85.5 35.5q-48 0 -82 -34t-34 -102v-279h-107v500h81l15 -62h10q50 72 153 72z" />
    <glyph glyph-name="Ncommaaccent" unicode="&#x145;" horiz-adv-x="706" 
d="M533 700h104v-700h-110l-345 512h-9v-512h-104v700h116l338 -509h10v509zM351 -56q34 0 53 -25.5t19 -65.5q0 -60 -33 -104.5t-77 -66.5l-24 30q61 48 62 98q-27 -4 -47 14.5t-20 51.5q0 31 18.5 49.5t48.5 18.5z" />
    <glyph glyph-name="ncommaaccent" unicode="&#x146;" horiz-adv-x="570" 
d="M323 510q84 0 136.5 -56.5t52.5 -160.5v-293h-107v275q0 69 -32.5 104.5t-85.5 35.5q-48 0 -82 -34t-34 -102v-279h-107v500h81l15 -62h10q50 72 153 72zM286 -56q33 0 51.5 -25t18.5 -64q0 -58 -32 -101.5t-75 -65.5l-24 30q60 47 61 95q-26 -4 -46 14t-20 50
q0 30 18.5 48.5t47.5 18.5z" />
    <glyph glyph-name="Ncaron" unicode="&#x147;" horiz-adv-x="706" 
d="M418 907h95l-116 -148h-87l-117 148h95l60 -82h10zM533 700h104v-700h-110l-345 512h-9v-512h-104v700h116l338 -509h10v509z" />
    <glyph glyph-name="ncaron" unicode="&#x148;" horiz-adv-x="570" 
d="M351 700h93l-113 -144h-85l-114 144h93l58 -80h10zM323 510q84 0 136.5 -56.5t52.5 -160.5v-293h-107v275q0 69 -32.5 104.5t-85.5 35.5q-48 0 -82 -34t-34 -102v-279h-107v500h81l15 -62h10q50 72 153 72z" />
    <glyph glyph-name="Eng" unicode="&#x14a;" horiz-adv-x="706" 
d="M532 700h105v-754q0 -74 -39.5 -115t-103.5 -41q-58 0 -96 21v82q32 -16 62 -16q33 0 51.5 20t18.5 57v41l-347 517h-10v-512h-104v700h116l338 -509h9v509z" />
    <glyph glyph-name="eng" unicode="&#x14b;" horiz-adv-x="570" 
d="M323 510q84 0 136.5 -56.5t52.5 -160.5v-353q0 -72 -38 -111t-100 -39q-56 0 -93 20v80q40 -16 59 -16q31 0 48 19t17 50v332q0 69 -32.5 104.5t-85.5 35.5q-48 0 -82 -34t-34 -102v-279h-107v500h81l15 -62h10q50 72 153 72z" />
    <glyph glyph-name="Omacron" unicode="&#x14c;" horiz-adv-x="799" 
d="M235 841h327v-75h-327v75zM400 -10q-150 0 -249.5 103t-99.5 257t99.5 257t249.5 103q149 0 248.5 -103t99.5 -257t-99.5 -257t-248.5 -103zM400 94q102 0 169 73.5t67 182.5t-67.5 182.5t-168.5 73.5q-102 0 -169.5 -73.5t-67.5 -182.5t67.5 -182.5t169.5 -73.5z" />
    <glyph glyph-name="omacron" unicode="&#x14d;" horiz-adv-x="591" 
d="M140 649h311v-72h-311v72zM296 -10q-110 0 -183.5 74t-73.5 187q0 112 73 185.5t183 73.5t184 -73.5t74 -186.5t-73 -186.5t-184 -73.5zM296 82q68 0 110.5 48.5t42.5 119.5q0 70 -43 119t-111 49q-67 0 -109.5 -48.5t-42.5 -119.5t42.5 -119.5t110.5 -48.5z" />
    <glyph glyph-name="Obreve" unicode="&#x14e;" horiz-adv-x="799" 
d="M541 886q0 -51 -39.5 -88.5t-100.5 -37.5t-101.5 37.5t-40.5 88.5h81q0 -26 17 -43.5t45 -17.5q27 0 43 17.5t16 43.5h80zM400 -10q-150 0 -249.5 103t-99.5 257t99.5 257t249.5 103q149 0 248.5 -103t99.5 -257t-99.5 -257t-248.5 -103zM400 94q102 0 169 73.5t67 182.5
t-67.5 182.5t-168.5 73.5q-102 0 -169.5 -73.5t-67.5 -182.5t67.5 -182.5t169.5 -73.5z" />
    <glyph glyph-name="obreve" unicode="&#x14f;" horiz-adv-x="591" 
d="M429 690q0 -49 -38 -84.5t-96 -35.5t-96.5 35.5t-38.5 84.5h77q0 -25 16 -42t43 -17q26 0 41.5 16.5t15.5 42.5h76zM296 -10q-110 0 -183.5 74t-73.5 187q0 112 73 185.5t183 73.5t184 -73.5t74 -186.5t-73 -186.5t-184 -73.5zM296 82q68 0 110.5 48.5t42.5 119.5
q0 70 -43 119t-111 49q-67 0 -109.5 -48.5t-42.5 -119.5t42.5 -119.5t110.5 -48.5z" />
    <glyph glyph-name="Ohungarumlaut" unicode="&#x150;" horiz-adv-x="799" 
d="M351 903h105l-103 -141h-79zM522 903h105l-103 -141h-79zM400 -10q-150 0 -249.5 103t-99.5 257t99.5 257t249.5 103q149 0 248.5 -103t99.5 -257t-99.5 -257t-248.5 -103zM400 94q102 0 169 73.5t67 182.5t-67.5 182.5t-168.5 73.5q-102 0 -169.5 -73.5t-67.5 -182.5
t67.5 -182.5t169.5 -73.5z" />
    <glyph glyph-name="ohungarumlaut" unicode="&#x151;" horiz-adv-x="591" 
d="M235 690h100l-98 -135h-75zM398 690h100l-98 -135h-75zM296 -10q-110 0 -183.5 74t-73.5 187q0 112 73 185.5t183 73.5t184 -73.5t74 -186.5t-73 -186.5t-184 -73.5zM296 82q68 0 110.5 48.5t42.5 119.5q0 70 -43 119t-111 49q-67 0 -109.5 -48.5t-42.5 -119.5
t42.5 -119.5t110.5 -48.5z" />
    <glyph glyph-name="OE" unicode="&#x152;" horiz-adv-x="1132" 
d="M748 99h355v-99h-459v88q-100 -98 -244 -98q-150 0 -249.5 103t-99.5 257t99.5 257t249.5 103q144 0 244 -98v88h449v-98h-345v-200h302v-94h-302v-209zM400 94q102 0 169 73.5t67 182.5t-67.5 182.5t-168.5 73.5q-102 0 -169.5 -73.5t-67.5 -182.5t67.5 -182.5
t169.5 -73.5z" />
    <glyph glyph-name="oe" unicode="&#x153;" horiz-adv-x="966" 
d="M924 225h-372q0 -1 -0.5 -4t-0.5 -5q8 -65 45.5 -102t104.5 -37q42 0 75.5 18.5t48.5 54.5h99q-18 -76 -80 -118t-144 -42q-133 0 -201 95q-74 -95 -203 -95q-110 0 -183.5 74t-73.5 187q0 112 73 185.5t183 73.5q130 0 205 -97q68 97 192 97q107 0 174 -72t58 -213z
M695 427q-55 0 -92.5 -33.5t-48.5 -91.5h274q-2 52 -38 88.5t-95 36.5zM296 82q68 0 110.5 48.5t42.5 119.5q0 70 -43 119t-111 49q-67 0 -109.5 -48.5t-42.5 -119.5t42.5 -119.5t110.5 -48.5z" />
    <glyph glyph-name="Racute" unicode="&#x154;" horiz-adv-x="600" 
d="M431 899l-108 -141h-77l65 141h120zM571 0h-117l-158 276h-124v-276h-103v700h245q104 0 167 -57t63 -153q0 -69 -38 -121.5t-104 -75.5zM172 602v-228h129q63 0 98.5 31.5t35.5 83.5q0 53 -35.5 83t-98.5 30h-129z" />
    <glyph glyph-name="racute" unicode="&#x155;" horiz-adv-x="383" 
d="M236 690h114l-103 -135h-73zM320 510h33v-104q-18 5 -45 5q-58 0 -98 -41.5t-40 -124.5v-245h-106v500h81l16 -70h9q54 80 150 80z" />
    <glyph glyph-name="Rcommaaccent" unicode="&#x156;" horiz-adv-x="600" 
d="M402 293l169 -293h-117l-158 276h-124v-276h-103v700h245q104 0 167 -57t63 -153q0 -69 -38 -121.5t-104 -75.5zM172 602v-228h129q63 0 98.5 31.5t35.5 83.5q0 53 -35.5 83t-98.5 30h-129zM306 -56q34 0 53 -25.5t19 -65.5q0 -60 -33 -104.5t-77 -66.5l-24 30
q61 48 62 98q-27 -4 -47 14.5t-20 51.5q0 31 18.5 49.5t48.5 18.5z" />
    <glyph glyph-name="rcommaaccent" unicode="&#x157;" horiz-adv-x="383" 
d="M320 510h33v-104q-18 5 -45 5q-58 0 -98 -41.5t-40 -124.5v-245h-106v500h81l16 -70h9q54 80 150 80zM115 -56q33 0 51.5 -25t18.5 -64q0 -58 -32 -101.5t-75 -65.5l-24 30q60 47 61 95q-26 -4 -46 14t-20 50q0 30 18.5 48.5t47.5 18.5z" />
    <glyph glyph-name="Rcaron" unicode="&#x158;" horiz-adv-x="600" 
d="M336 759h-87l-117 148h95l60 -82h10l60 82h95zM571 0h-117l-158 276h-124v-276h-103v700h245q104 0 167 -57t63 -153q0 -69 -38 -121.5t-104 -75.5zM172 602v-228h129q63 0 98.5 31.5t35.5 83.5q0 53 -35.5 83t-98.5 30h-129z" />
    <glyph glyph-name="rcaron" unicode="&#x159;" horiz-adv-x="383" 
d="M275 700h93l-113 -144h-85l-114 144h93l58 -80h10zM320 510h33v-104q-18 5 -45 5q-58 0 -98 -41.5t-40 -124.5v-245h-106v500h81l16 -70h9q54 80 150 80z" />
    <glyph glyph-name="Sacute" unicode="&#x15a;" horiz-adv-x="595" 
d="M317 899h120l-108 -141h-77zM544 179q0 -92 -65.5 -140.5t-171.5 -48.5q-121 0 -187.5 63t-68.5 165h108q2 -61 38.5 -97.5t110.5 -36.5q56 0 91 24t35 71q0 45 -34.5 75t-121.5 59q-98 33 -152 78.5t-54 123.5q0 89 62.5 142t159.5 53q108 0 171 -61t65 -148h-101
q-3 47 -37 81t-98 34q-51 0 -82 -26.5t-31 -67.5t33.5 -67t113.5 -54q109 -39 162.5 -89.5t53.5 -132.5z" />
    <glyph glyph-name="sacute" unicode="&#x15b;" horiz-adv-x="469" 
d="M259 690h114l-103 -135h-73zM430 132q0 -67 -53 -104.5t-135 -37.5q-91 0 -146 48t-57 125h100q1 -46 32.5 -69t72.5 -23q36 0 60 16t24 45q0 32 -28 51t-82 35q-26 7 -45.5 14.5t-43 20t-38.5 27t-25.5 37t-10.5 48.5q0 65 51 105t129 40q82 0 131 -44t52 -108h-97
q-2 32 -27 52t-63 20q-31 0 -52 -15.5t-21 -42.5q0 -28 24.5 -45.5t79.5 -34.5q81 -24 124.5 -60t43.5 -100z" />
    <glyph glyph-name="Scircumflex" unicode="&#x15c;" horiz-adv-x="595" 
d="M232 768h-95l116 148h87l117 -148h-95l-60 82h-10zM544 179q0 -92 -65.5 -140.5t-171.5 -48.5q-121 0 -187.5 63t-68.5 165h108q2 -61 38.5 -97.5t110.5 -36.5q56 0 91 24t35 71q0 45 -34.5 75t-121.5 59q-98 33 -152 78.5t-54 123.5q0 89 62.5 142t159.5 53
q108 0 171 -61t65 -148h-101q-3 47 -37 81t-98 34q-51 0 -82 -26.5t-31 -67.5t33.5 -67t113.5 -54q109 -39 162.5 -89.5t53.5 -132.5z" />
    <glyph glyph-name="scircumflex" unicode="&#x15d;" horiz-adv-x="469" 
d="M171 556h-93l113 144h85l114 -144h-93l-58 80h-10zM430 132q0 -67 -53 -104.5t-135 -37.5q-91 0 -146 48t-57 125h100q1 -46 32.5 -69t72.5 -23q36 0 60 16t24 45q0 32 -28 51t-82 35q-26 7 -45.5 14.5t-43 20t-38.5 27t-25.5 37t-10.5 48.5q0 65 51 105t129 40
q82 0 131 -44t52 -108h-97q-2 32 -27 52t-63 20q-31 0 -52 -15.5t-21 -42.5q0 -28 24.5 -45.5t79.5 -34.5q81 -24 124.5 -60t43.5 -100z" />
    <glyph glyph-name="Scedilla" unicode="&#x15e;" horiz-adv-x="595" 
d="M544 179q0 -84 -55 -131.5t-147 -56.5l-25 -36q39 7 71 -17t32 -67q0 -40 -27.5 -63t-77.5 -23q-46 0 -72.5 22t-34.5 42l44 25q22 -37 61 -37q21 0 33 11t12 28t-13 27.5t-37 10.5q-12 0 -35 -10l-32 35l35 52q-107 9 -165 70.5t-60 156.5h108q2 -61 38.5 -97.5
t110.5 -36.5q56 0 91 24t35 71q0 45 -34.5 75t-121.5 59q-98 33 -152 78.5t-54 123.5q0 89 62.5 142t159.5 53q108 0 171 -61t65 -148h-101q-3 47 -37 81t-98 34q-51 0 -82 -26.5t-31 -67.5t33.5 -67t113.5 -54q109 -39 162.5 -89.5t53.5 -132.5z" />
    <glyph glyph-name="scedilla" unicode="&#x15f;" horiz-adv-x="469" 
d="M430 132q0 -61 -44.5 -98t-116.5 -43l-24 -35q38 7 69 -16.5t31 -65.5q0 -39 -26.5 -61.5t-75.5 -22.5q-32 0 -57 13.5t-34 25.5t-14 23l43 25q22 -36 60 -36q20 0 32 10.5t12 27.5q0 16 -12.5 26.5t-36.5 10.5q-14 0 -34 -10l-32 34l34 52q-75 10 -119 56t-46 115h100
q1 -46 32.5 -69t72.5 -23q36 0 60 16t24 45q0 32 -28 51t-82 35q-26 7 -45.5 14.5t-43 20t-38.5 27t-25.5 37t-10.5 48.5q0 65 51 105t129 40q82 0 131 -44t52 -108h-97q-2 32 -27 52t-63 20q-31 0 -52 -15.5t-21 -42.5q0 -28 24.5 -45.5t79.5 -34.5q81 -24 124.5 -60
t43.5 -100z" />
    <glyph glyph-name="Scaron" unicode="&#x160;" horiz-adv-x="595" 
d="M363 907h95l-116 -148h-87l-117 148h95l60 -82h10zM544 179q0 -92 -65.5 -140.5t-171.5 -48.5q-121 0 -187.5 63t-68.5 165h108q2 -61 38.5 -97.5t110.5 -36.5q56 0 91 24t35 71q0 45 -34.5 75t-121.5 59q-98 33 -152 78.5t-54 123.5q0 89 62.5 142t159.5 53
q108 0 171 -61t65 -148h-101q-3 47 -37 81t-98 34q-51 0 -82 -26.5t-31 -67.5t33.5 -67t113.5 -54q109 -39 162.5 -89.5t53.5 -132.5z" />
    <glyph glyph-name="scaron" unicode="&#x161;" horiz-adv-x="469" 
d="M298 700h93l-113 -144h-85l-114 144h93l58 -80h10zM430 132q0 -67 -53 -104.5t-135 -37.5q-91 0 -146 48t-57 125h100q1 -46 32.5 -69t72.5 -23q36 0 60 16t24 45q0 32 -28 51t-82 35q-26 7 -45.5 14.5t-43 20t-38.5 27t-25.5 37t-10.5 48.5q0 65 51 105t129 40
q82 0 131 -44t52 -108h-97q-2 32 -27 52t-63 20q-31 0 -52 -15.5t-21 -42.5q0 -28 24.5 -45.5t79.5 -34.5q81 -24 124.5 -60t43.5 -100z" />
    <glyph glyph-name="uni0162" unicode="&#x162;" horiz-adv-x="563" 
d="M335 0h-18l-31 -45q39 7 71 -17t32 -67q0 -40 -27.5 -63t-77.5 -23q-46 0 -72.5 22t-34.5 42l44 25q22 -37 61 -37q21 0 33 11t12 28t-13 27.5t-37 10.5q-13 0 -35 -10l-32 35l40 61h-23v602h-199v98h506v-98h-199v-602z" />
    <glyph glyph-name="uni0163" unicode="&#x163;" horiz-adv-x="379" 
d="M350 416h-121v-273q0 -62 49 -62q23 0 44 14l25 -81q-33 -20 -76 -24l-26 -38q38 7 69 -16.5t31 -65.5q0 -39 -26.5 -61.5t-75.5 -22.5q-32 0 -57 13.5t-34 25.5t-14 23l43 25q22 -36 60 -36q20 0 32 10.5t12 27.5q0 16 -12.5 26.5t-36.5 10.5q-14 0 -34 -10l-32 34
l40 60q-84 24 -84 137v283h-98v76h30q78 0 78 70v64h93v-126h121v-84z" />
    <glyph glyph-name="Tcaron" unicode="&#x164;" horiz-adv-x="563" 
d="M325 759h-87l-117 148h95l60 -82h10l60 82h95zM534 700v-98h-199v-602h-108v602h-199v98h506z" />
    <glyph glyph-name="tcaron" unicode="&#x165;" horiz-adv-x="379" 
d="M312 700h90l-36 -153h-68zM347 14q-40 -24 -88 -24q-133 0 -133 143v283h-98v76h30q78 0 78 70v64h93v-126h121v-84h-121v-273q0 -62 49 -62q23 0 44 14z" />
    <glyph glyph-name="Tbar" unicode="&#x166;" horiz-adv-x="563" 
d="M534 602h-199v-209h139v-80h-139v-313h-108v313h-139v80h139v209h-199v98h506v-98z" />
    <glyph glyph-name="tbar" unicode="&#x167;" horiz-adv-x="379" 
d="M350 416h-121v-89h119v-75h-119v-109q0 -62 49 -62q23 0 44 14l25 -81q-40 -24 -88 -24q-133 0 -133 143v119h-95v75h95v89h-98v76h30q78 0 78 70v64h93v-126h121v-84z" />
    <glyph glyph-name="Utilde" unicode="&#x168;" horiz-adv-x="693" 
d="M531 854q-9 -33 -38 -62.5t-75 -29.5q-38 0 -78 25t-61 25q-34 0 -57 -46l-59 30q10 34 39 64t74 30q38 0 77.5 -25.5t60.5 -25.5q37 0 57 46zM625 700v-420q0 -142 -77.5 -216t-199.5 -74t-200.5 74t-78.5 216v420h112v-421q0 -88 46 -137t121 -49q74 0 119.5 49
t45.5 137v421h112z" />
    <glyph glyph-name="utilde" unicode="&#x169;" horiz-adv-x="570" 
d="M458 642q-9 -32 -36.5 -60t-71.5 -28q-36 0 -74 24t-58 24q-33 0 -54 -44l-57 29q10 33 37.5 61t70.5 28q36 0 74 -24t57 -24q35 0 55 43zM249 -10q-83 0 -135.5 56.5t-52.5 160.5v293h107v-275q0 -69 32 -104.5t85 -35.5q48 0 81 34t33 102v279h108v-500h-82l-15 62h-9
q-53 -72 -152 -72z" />
    <glyph glyph-name="Umacron" unicode="&#x16a;" horiz-adv-x="693" 
d="M183 841h327v-75h-327v75zM625 700v-420q0 -142 -77.5 -216t-199.5 -74t-200.5 74t-78.5 216v420h112v-421q0 -88 46 -137t121 -49q74 0 119.5 49t45.5 137v421h112z" />
    <glyph glyph-name="umacron" unicode="&#x16b;" horiz-adv-x="570" 
d="M128 649h311v-72h-311v72zM249 -10q-83 0 -135.5 56.5t-52.5 160.5v293h107v-275q0 -69 32 -104.5t85 -35.5q48 0 81 34t33 102v279h108v-500h-82l-15 62h-9q-53 -72 -152 -72z" />
    <glyph glyph-name="Ubreve" unicode="&#x16c;" horiz-adv-x="693" 
d="M489 886q0 -51 -39.5 -88.5t-100.5 -37.5t-101.5 37.5t-40.5 88.5h81q0 -26 17 -43.5t45 -17.5q27 0 43 17.5t16 43.5h80zM625 700v-420q0 -142 -77.5 -216t-199.5 -74t-200.5 74t-78.5 216v420h112v-421q0 -88 46 -137t121 -49q74 0 119.5 49t45.5 137v421h112z" />
    <glyph glyph-name="ubreve" unicode="&#x16d;" horiz-adv-x="570" 
d="M417 690q0 -49 -38 -84.5t-96 -35.5t-96.5 35.5t-38.5 84.5h77q0 -25 16 -42t43 -17q26 0 41.5 16.5t15.5 42.5h76zM249 -10q-83 0 -135.5 56.5t-52.5 160.5v293h107v-275q0 -69 32 -104.5t85 -35.5q48 0 81 34t33 102v279h108v-500h-82l-15 62h-9q-53 -72 -152 -72z" />
    <glyph glyph-name="Uring" unicode="&#x16e;" horiz-adv-x="693" 
d="M348 753q-45 0 -77 32t-32 76t32 76t77 32q44 0 76.5 -32t32.5 -76t-32.5 -76t-76.5 -32zM349 818q16 0 28.5 13t12.5 30t-12.5 30t-28.5 13q-18 0 -30.5 -12.5t-12.5 -30.5t12.5 -30.5t30.5 -12.5zM625 700v-420q0 -142 -77.5 -216t-199.5 -74t-200.5 74t-78.5 216v420
h112v-421q0 -88 46 -137t121 -49q74 0 119.5 49t45.5 137v421h112z" />
    <glyph glyph-name="uring" unicode="&#x16f;" horiz-adv-x="570" 
d="M282 538q-40 0 -68.5 28.5t-28.5 67.5q0 40 28.5 68.5t68.5 28.5t69 -28.5t29 -68.5q0 -39 -29 -67.5t-69 -28.5zM283 596q15 0 26 11.5t11 26.5q0 16 -11 27.5t-26 11.5q-16 0 -27 -11.5t-11 -27.5q0 -15 11 -26.5t27 -11.5zM249 -10q-83 0 -135.5 56.5t-52.5 160.5v293
h107v-275q0 -69 32 -104.5t85 -35.5q48 0 81 34t33 102v279h108v-500h-82l-15 62h-9q-53 -72 -152 -72z" />
    <glyph glyph-name="Uhungarumlaut" unicode="&#x170;" horiz-adv-x="693" 
d="M299 903h105l-103 -141h-79zM470 903h105l-103 -141h-79zM625 700v-420q0 -142 -77.5 -216t-199.5 -74t-200.5 74t-78.5 216v420h112v-421q0 -88 46 -137t121 -49q74 0 119.5 49t45.5 137v421h112z" />
    <glyph glyph-name="uhungarumlaut" unicode="&#x171;" horiz-adv-x="570" 
d="M223 690h100l-98 -135h-75zM386 690h100l-98 -135h-75zM249 -10q-83 0 -135.5 56.5t-52.5 160.5v293h107v-275q0 -69 32 -104.5t85 -35.5q48 0 81 34t33 102v279h108v-500h-82l-15 62h-9q-53 -72 -152 -72z" />
    <glyph glyph-name="Uogonek" unicode="&#x172;" horiz-adv-x="693" 
d="M513 700h112v-420q0 -111 -49 -181t-132 -96q-30 -9 -50 -30.5t-20 -44.5q0 -27 20 -40.5t45 -12t45 12.5v-62q-20 -13 -60 -13q-48 0 -81 26.5t-33 72.5q0 50 45 79q-6 -1 -18 -1q-118 3 -193 77t-75 213v420h112v-421q0 -88 46 -137t121 -49q74 0 119.5 49t45.5 137
v421z" />
    <glyph glyph-name="uogonek" unicode="&#x173;" horiz-adv-x="570" 
d="M438 -71q0 -38 39 -47t68 10v-61q-17 -13 -58 -13q-47 0 -79.5 26t-32.5 72q0 52 56 84h-6l-15 62h-9q-53 -72 -152 -72q-83 0 -135.5 56.5t-52.5 160.5v293h107v-275q0 -69 32 -104.5t85 -35.5q48 0 81 34t33 102v279h108v-500q-29 -8 -49 -28.5t-20 -42.5z" />
    <glyph glyph-name="Wcircumflex" unicode="&#x174;" horiz-adv-x="891" 
d="M379 768h-95l116 148h87l117 -148h-95l-60 82h-10zM769 700h103l-138 -700h-153l-131 503h-9l-131 -503h-153l-138 700h105l110 -567h9l134 517h137l134 -517h9z" />
    <glyph glyph-name="wcircumflex" unicode="&#x175;" horiz-adv-x="740" 
d="M307 556h-93l113 144h85l114 -144h-93l-58 80h-10zM618 500h96l-119 -500h-127l-93 357h-9l-95 -357h-126l-119 500h97l86 -391h9l94 356h117l95 -356h9z" />
    <glyph glyph-name="Ycircumflex" unicode="&#x176;" horiz-adv-x="646" 
d="M257 768h-95l116 148h87l117 -148h-95l-60 82h-10zM499 700h128l-247 -378v-322h-113v322l-248 378h128l171 -261h9z" />
    <glyph glyph-name="ycircumflex" unicode="&#x177;" horiz-adv-x="563" 
d="M219 556h-93l113 144h85l114 -144h-93l-58 80h-10zM430 500h107l-188 -556q-24 -74 -66.5 -114t-118.5 -40q-79 0 -120 44l42 73q36 -29 74 -29q30 0 53.5 22.5t35.5 57.5l14 42h-40l-196 500h111l151 -395h10z" />
    <glyph glyph-name="Ydieresis" unicode="&#x178;" horiz-adv-x="646" 
d="M208 761q-28 0 -47.5 19.5t-19.5 46.5q0 28 19.5 47.5t47.5 19.5q27 0 46.5 -19.5t19.5 -47.5q0 -27 -19.5 -46.5t-46.5 -19.5zM439 761q-27 0 -46.5 19.5t-19.5 46.5q0 28 19.5 47.5t46.5 19.5t46.5 -19.5t19.5 -47.5q0 -27 -19.5 -46.5t-46.5 -19.5zM499 700h128
l-247 -378v-322h-113v322l-248 378h128l171 -261h9z" />
    <glyph glyph-name="Zacute" unicode="&#x179;" horiz-adv-x="602" 
d="M324 899h120l-108 -141h-77zM204 100h340v-100h-493v76l346 518v7h-324v99h469v-75l-338 -518v-7z" />
    <glyph glyph-name="zacute" unicode="&#x17a;" horiz-adv-x="467" 
d="M262 690h114l-103 -135h-73zM177 86h250v-86h-388v62l244 345v7h-231v86h370v-62l-245 -345v-7z" />
    <glyph glyph-name="Zdotaccent" unicode="&#x17b;" horiz-adv-x="602" 
d="M303 772q-31 0 -53.5 22t-22.5 53t22.5 53t53.5 22t52.5 -22t21.5 -53t-21.5 -53t-52.5 -22zM204 100h340v-100h-493v76l346 518v7h-324v99h469v-75l-338 -518v-7z" />
    <glyph glyph-name="zdotaccent" unicode="&#x17c;" horiz-adv-x="467" 
d="M238 571q-28 0 -48.5 20t-20.5 48t20.5 48t48.5 20t47.5 -20t19.5 -48t-19.5 -48t-47.5 -20zM177 86h250v-86h-388v62l244 345v7h-231v86h370v-62l-245 -345v-7z" />
    <glyph glyph-name="Zcaron" unicode="&#x17d;" horiz-adv-x="602" 
d="M370 907h95l-116 -148h-87l-117 148h95l60 -82h10zM204 100h340v-100h-493v76l346 518v7h-324v99h469v-75l-338 -518v-7z" />
    <glyph glyph-name="zcaron" unicode="&#x17e;" horiz-adv-x="467" 
d="M301 700h93l-113 -144h-85l-114 144h93l58 -80h10zM177 86h250v-86h-388v62l244 345v7h-231v86h370v-62l-245 -345v-7z" />
    <glyph glyph-name="florin" unicode="&#x192;" horiz-adv-x="511" 
d="M398 573q-54 0 -64 -63l-20 -114h118l-13 -72h-117l-36 -207q-11 -63 -49 -95t-96 -32q-63 0 -102 37l37 64q26 -24 57 -24q55 0 65 63l33 194h-116l13 72h115l22 127q11 63 49 95t96 32q61 0 102 -37l-37 -64q-26 24 -57 24z" />
    <glyph glyph-name="uni01CD" unicode="&#x1cd;" horiz-adv-x="657" 
d="M373 759h-87l-117 148h95l60 -82h10l60 82h95zM523 0l-56 171h-277l-56 -171h-115l239 700h141l239 -700h-115zM220 264h217l-104 318h-9z" />
    <glyph glyph-name="uni01CE" unicode="&#x1ce;" horiz-adv-x="523" 
d="M306 556h-85l-114 144h93l58 -80h10l58 80h93zM458 133q0 -27 10.5 -37.5t33.5 -10.5v-85h-19q-82 0 -101 66q-63 -76 -172 -76q-76 0 -123.5 37t-47.5 105q0 148 225 166l95 7v12q0 52 -25.5 82.5t-71.5 30.5q-47 0 -72.5 -27t-30.5 -64h-98q7 75 60 123t140 48
q88 0 142.5 -52.5t54.5 -147.5v-177zM222 73q55 0 96 35t41 97v26l-76 -6q-141 -11 -141 -87q0 -32 22.5 -48.5t57.5 -16.5z" />
    <glyph glyph-name="uni01CF" unicode="&#x1cf;" horiz-adv-x="249" 
d="M190 907h95l-116 -148h-87l-117 148h95l60 -82h10zM180 700v-700h-111v700h111z" />
    <glyph glyph-name="uni01D0" unicode="&#x1d0;" horiz-adv-x="235" 
d="M181 700h93l-113 -144h-85l-114 144h93l58 -80h10zM169 500v-500h-103v500h103z" />
    <glyph glyph-name="uni01D1" unicode="&#x1d1;" horiz-adv-x="799" 
d="M464 907h95l-116 -148h-87l-117 148h95l60 -82h10zM400 -10q-150 0 -249.5 103t-99.5 257t99.5 257t249.5 103q149 0 248.5 -103t99.5 -257t-99.5 -257t-248.5 -103zM400 94q102 0 169 73.5t67 182.5t-67.5 182.5t-168.5 73.5q-102 0 -169.5 -73.5t-67.5 -182.5
t67.5 -182.5t169.5 -73.5z" />
    <glyph glyph-name="uni01D2" unicode="&#x1d2;" horiz-adv-x="591" 
d="M358 700h93l-113 -144h-85l-114 144h93l58 -80h10zM296 -10q-110 0 -183.5 74t-73.5 187q0 112 73 185.5t183 73.5t184 -73.5t74 -186.5t-73 -186.5t-184 -73.5zM296 82q68 0 110.5 48.5t42.5 119.5q0 70 -43 119t-111 49q-67 0 -109.5 -48.5t-42.5 -119.5t42.5 -119.5
t110.5 -48.5z" />
    <glyph glyph-name="uni01D3" unicode="&#x1d3;" horiz-adv-x="693" 
d="M412 907h95l-116 -148h-87l-117 148h95l60 -82h10zM625 700v-420q0 -142 -77.5 -216t-199.5 -74t-200.5 74t-78.5 216v420h112v-421q0 -88 46 -137t121 -49q74 0 119.5 49t45.5 137v421h112z" />
    <glyph glyph-name="uni01D4" unicode="&#x1d4;" horiz-adv-x="570" 
d="M346 700h93l-113 -144h-85l-114 144h93l58 -80h10zM249 -10q-83 0 -135.5 56.5t-52.5 160.5v293h107v-275q0 -69 32 -104.5t85 -35.5q48 0 81 34t33 102v279h108v-500h-82l-15 62h-9q-53 -72 -152 -72z" />
    <glyph glyph-name="uni01E2" unicode="&#x1e2;" horiz-adv-x="990" 
d="M851 841v-75h-327v75h327zM606 99h355v-99h-459v175h-259l-102 -175h-122l404 700h528v-98h-345v-200h302v-94h-302v-209zM299 272h203v327h-12z" />
    <glyph glyph-name="uni01E3" unicode="&#x1e3;" horiz-adv-x="873" 
d="M600 649v-72h-311v72h311zM831 225h-373v-8q8 -66 45.5 -103t104.5 -37q42 0 75.5 18.5t48.5 54.5h99q-18 -76 -80 -118t-144 -42q-139 0 -206 103q-26 -47 -77.5 -75t-113.5 -28q-76 0 -123.5 37t-47.5 105q0 80 57.5 123.5t171.5 43.5h91v18q0 52 -25.5 82.5
t-71.5 30.5q-47 0 -72.5 -27t-30.5 -64h-98q7 75 60 123t140 48q110 0 162 -76q70 76 176 76q107 0 174 -72t58 -213zM602 427q-55 0 -92.5 -33.5t-48.5 -91.5h274q-2 52 -38 88.5t-95 36.5zM222 73q55 0 96 35t41 97v18h-86q-131 0 -131 -85q0 -32 22.5 -48.5t57.5 -16.5z
" />
    <glyph glyph-name="Gcaron" unicode="&#x1e6;" horiz-adv-x="738" 
d="M435 907h95l-116 -148h-87l-117 148h95l60 -82h10zM359 369h309v-369h-73l-17 74h-9q-29 -31 -81.5 -57.5t-126.5 -26.5q-145 0 -227.5 96.5t-82.5 248.5q0 164 90 269.5t233 105.5q129 0 202.5 -62.5t87.5 -161.5h-112q-12 52 -57 87.5t-116 35.5q-99 0 -158.5 -75.5
t-59.5 -193.5q0 -112 57 -181.5t165 -69.5q58 0 104.5 24t73.5 54v115h-202v87z" />
    <glyph glyph-name="gcaron" unicode="&#x1e7;" horiz-adv-x="536" 
d="M306 556h-85l-114 144h93l58 -80h10l58 80h93zM510 478q-25 -29 -79 -52q26 -41 26 -93q0 -74 -55.5 -119t-142.5 -45q-39 0 -77 11q-36 -16 -36 -38q0 -42 79 -42h82q88 0 134.5 -39t46.5 -108q0 -74 -60 -118.5t-162 -44.5q-108 0 -168 52.5t-59 126.5l75 61
q-61 25 -61 87q0 61 69 95q-59 46 -59 124q0 76 53 125t139 49q75 0 127 -35q42 23 77 68zM261 244q43 0 70 27.5t27 68.5t-26.5 68.5t-69.5 27.5q-44 0 -71.5 -27.5t-27.5 -69.5q0 -40 27.5 -67.5t70.5 -27.5zM387 -51q0 35 -26.5 52.5t-70.5 17.5h-79l-72 -57
q17 -89 132 -89q52 0 84 20t32 56z" />
    <glyph glyph-name="uni01EA" unicode="&#x1ea;" horiz-adv-x="799" 
d="M529 13q-32 -13 -51 -35.5t-19 -48.5q0 -27 20 -41t45 -12.5t45 12.5v-62q-20 -13 -60 -13q-48 0 -81.5 26.5t-33.5 73.5q0 48 44 80q-18 -3 -38 -3q-150 0 -249.5 103t-99.5 257t99.5 257t249.5 103q149 0 248.5 -103t99.5 -257q0 -117 -60 -207.5t-159 -129.5zM400 94
q102 0 169 73.5t67 182.5t-67.5 182.5t-168.5 73.5q-102 0 -169.5 -73.5t-67.5 -182.5t67.5 -182.5t169.5 -73.5z" />
    <glyph glyph-name="uni01EB" unicode="&#x1eb;" horiz-adv-x="591" 
d="M553 250q0 -92 -50 -159.5t-132 -90.5q-29 -8 -49 -28.5t-20 -42.5q0 -38 39 -47t68 10v-61q-17 -13 -58 -13q-47 0 -79.5 26t-32.5 72q0 45 41 74q-104 6 -172.5 79t-68.5 182q0 112 73 185.5t183 73.5t184 -73.5t74 -186.5zM296 82q68 0 110.5 48.5t42.5 119.5
q0 70 -43 119t-111 49q-67 0 -109.5 -48.5t-42.5 -119.5t42.5 -119.5t110.5 -48.5z" />
    <glyph glyph-name="uni01F4" unicode="&#x1f4;" horiz-adv-x="738" 
d="M389 899h120l-108 -141h-77zM359 369h309v-369h-73l-17 74h-9q-29 -31 -81.5 -57.5t-126.5 -26.5q-145 0 -227.5 96.5t-82.5 248.5q0 164 90 269.5t233 105.5q129 0 202.5 -62.5t87.5 -161.5h-112q-12 52 -57 87.5t-116 35.5q-99 0 -158.5 -75.5t-59.5 -193.5
q0 -112 57 -181.5t165 -69.5q58 0 104.5 24t73.5 54v115h-202v87z" />
    <glyph glyph-name="uni01F5" unicode="&#x1f5;" horiz-adv-x="536" 
d="M401 690l-103 -135h-73l62 135h114zM510 478q-25 -29 -79 -52q26 -41 26 -93q0 -74 -55.5 -119t-142.5 -45q-39 0 -77 11q-36 -16 -36 -38q0 -42 79 -42h82q88 0 134.5 -39t46.5 -108q0 -74 -60 -118.5t-162 -44.5q-108 0 -168 52.5t-59 126.5l75 61q-61 25 -61 87
q0 61 69 95q-59 46 -59 124q0 76 53 125t139 49q75 0 127 -35q42 23 77 68zM261 244q43 0 70 27.5t27 68.5t-26.5 68.5t-69.5 27.5q-44 0 -71.5 -27.5t-27.5 -69.5q0 -40 27.5 -67.5t70.5 -27.5zM387 -51q0 35 -26.5 52.5t-70.5 17.5h-79l-72 -57q17 -89 132 -89q52 0 84 20
t32 56z" />
    <glyph glyph-name="uni01F8" unicode="&#x1f8;" horiz-adv-x="706" 
d="M337 899l65 -141h-77l-108 141h120zM533 700h104v-700h-110l-345 512h-9v-512h-104v700h116l338 -509h10v509z" />
    <glyph glyph-name="uni01F9" unicode="&#x1f9;" horiz-adv-x="570" 
d="M264 690l62 -135h-73l-103 135h114zM323 510q84 0 136.5 -56.5t52.5 -160.5v-293h-107v275q0 69 -32.5 104.5t-85.5 35.5q-48 0 -82 -34t-34 -102v-279h-107v500h81l15 -62h10q50 72 153 72z" />
    <glyph glyph-name="AEacute" unicode="&#x1fc;" horiz-adv-x="990" 
d="M827 899l-108 -141h-77l65 141h120zM606 99h355v-99h-459v175h-259l-102 -175h-122l404 700h528v-98h-345v-200h302v-94h-302v-209zM299 272h203v327h-12z" />
    <glyph glyph-name="aeacute" unicode="&#x1fd;" horiz-adv-x="873" 
d="M582 690l-103 -135h-73l62 135h114zM831 225h-373v-8q8 -66 45.5 -103t104.5 -37q42 0 75.5 18.5t48.5 54.5h99q-18 -76 -80 -118t-144 -42q-139 0 -206 103q-26 -47 -77.5 -75t-113.5 -28q-76 0 -123.5 37t-47.5 105q0 80 57.5 123.5t171.5 43.5h91v18q0 52 -25.5 82.5
t-71.5 30.5q-47 0 -72.5 -27t-30.5 -64h-98q7 75 60 123t140 48q110 0 162 -76q70 76 176 76q107 0 174 -72t58 -213zM602 427q-55 0 -92.5 -33.5t-48.5 -91.5h274q-2 52 -38 88.5t-95 36.5zM222 73q55 0 96 35t41 97v18h-86q-131 0 -131 -85q0 -32 22.5 -48.5t57.5 -16.5z
" />
    <glyph glyph-name="Oslashacute" unicode="&#x1fe;" horiz-adv-x="799" 
d="M538 899l-108 -141h-77l65 141h120zM638 617q110 -105 110 -267q0 -154 -99.5 -257t-248.5 -103q-92 0 -172 43l-38 -54l-69 50l38 55q-108 105 -108 266q0 154 99.5 257t249.5 103q90 0 167 -41l37 52l71 -51zM163 350q0 -103 60 -174l283 405q-50 25 -106 25
q-102 0 -169.5 -73.5t-67.5 -182.5zM400 94q102 0 169 73.5t67 182.5q0 104 -62 176l-284 -405q51 -27 110 -27z" />
    <glyph glyph-name="oslashacute" unicode="&#x1ff;" horiz-adv-x="591" 
d="M433 690l-103 -135h-73l62 135h114zM476 439q77 -74 77 -189q0 -113 -73 -186.5t-184 -73.5q-65 0 -121 28l-27 -37l-61 42l28 39q-76 74 -76 189q0 112 73 185.5t183 73.5q65 0 121 -28l28 39l61 -42zM143 250q0 -60 31 -105l186 259q-30 14 -65 14q-67 0 -109.5 -48.5
t-42.5 -119.5zM296 82q68 0 110.5 48.5t42.5 119.5q0 60 -32 106l-186 -260q30 -14 65 -14z" />
    <glyph glyph-name="Scommaaccent" unicode="&#x218;" horiz-adv-x="595" 
d="M544 179q0 -92 -65.5 -140.5t-171.5 -48.5q-121 0 -187.5 63t-68.5 165h108q2 -61 38.5 -97.5t110.5 -36.5q56 0 91 24t35 71q0 45 -34.5 75t-121.5 59q-98 33 -152 78.5t-54 123.5q0 89 62.5 142t159.5 53q108 0 171 -61t65 -148h-101q-3 47 -37 81t-98 34
q-51 0 -82 -26.5t-31 -67.5t33.5 -67t113.5 -54q109 -39 162.5 -89.5t53.5 -132.5zM310 -56q34 0 53 -25.5t19 -65.5q0 -60 -33 -104.5t-77 -66.5l-24 30q61 48 62 98q-27 -4 -47 14.5t-20 51.5q0 31 18.5 49.5t48.5 18.5z" />
    <glyph glyph-name="scommaaccent" unicode="&#x219;" horiz-adv-x="469" 
d="M430 132q0 -67 -53 -104.5t-135 -37.5q-91 0 -146 48t-57 125h100q1 -46 32.5 -69t72.5 -23q36 0 60 16t24 45q0 32 -28 51t-82 35q-26 7 -45.5 14.5t-43 20t-38.5 27t-25.5 37t-10.5 48.5q0 65 51 105t129 40q82 0 131 -44t52 -108h-97q-2 32 -27 52t-63 20
q-31 0 -52 -15.5t-21 -42.5q0 -28 24.5 -45.5t79.5 -34.5q81 -24 124.5 -60t43.5 -100zM239 -56q33 0 51.5 -25t18.5 -64q0 -58 -32 -101.5t-75 -65.5l-24 30q60 47 61 95q-26 -4 -46 14t-20 50q0 30 18.5 48.5t47.5 18.5z" />
    <glyph glyph-name="uni021A" unicode="&#x21a;" horiz-adv-x="563" 
d="M28 700h506v-98h-199v-602h-108v602h-199v98zM279 -56q34 0 53 -25.5t19 -65.5q0 -60 -33 -104.5t-77 -66.5l-24 30q61 48 62 98q-27 -4 -47 14.5t-20 51.5q0 31 18.5 49.5t48.5 18.5z" />
    <glyph glyph-name="uni021B" unicode="&#x21b;" horiz-adv-x="379" 
d="M347 14q-40 -24 -88 -24q-133 0 -133 143v283h-98v76h30q78 0 78 70v64h93v-126h121v-84h-121v-273q0 -62 49 -62q23 0 44 14zM239 -60q33 0 51.5 -25t18.5 -64q0 -58 -32 -101.5t-75 -65.5l-24 30q60 47 61 95q-26 -4 -46 14t-20 50q0 30 18.5 48.5t47.5 18.5z" />
    <glyph glyph-name="uni021E" unicode="&#x21e;" horiz-adv-x="673" 
d="M400 907h95l-116 -148h-87l-117 148h95l60 -82h10zM496 700h108v-700h-108v305h-319v-305h-108v700h108v-297h319v297z" />
    <glyph glyph-name="uni0226" unicode="&#x226;" horiz-adv-x="657" 
d="M327 772q-31 0 -53.5 22t-22.5 53t22.5 53t53.5 22t52.5 -22t21.5 -53t-21.5 -53t-52.5 -22zM523 0l-56 171h-277l-56 -171h-115l239 700h141l239 -700h-115zM220 264h217l-104 318h-9z" />
    <glyph glyph-name="uni0227" unicode="&#x227;" horiz-adv-x="523" 
d="M263 571q-28 0 -48.5 20t-20.5 48t20.5 48t48.5 20t47.5 -20t19.5 -48t-19.5 -48t-47.5 -20zM458 133q0 -27 10.5 -37.5t33.5 -10.5v-85h-19q-82 0 -101 66q-63 -76 -172 -76q-76 0 -123.5 37t-47.5 105q0 148 225 166l95 7v12q0 52 -25.5 82.5t-71.5 30.5
q-47 0 -72.5 -27t-30.5 -64h-98q7 75 60 123t140 48q88 0 142.5 -52.5t54.5 -147.5v-177zM222 73q55 0 96 35t41 97v26l-76 -6q-141 -11 -141 -87q0 -32 22.5 -48.5t57.5 -16.5z" />
    <glyph glyph-name="uni0228" unicode="&#x228;" horiz-adv-x="557" 
d="M528 0h-185l-31 -45q39 7 71 -17t32 -67q0 -40 -27.5 -63t-77.5 -23q-46 0 -72.5 22t-34.5 42l44 25q22 -37 61 -37q21 0 33 11t12 28t-13 27.5t-37 10.5q-13 0 -35 -10l-32 35l40 61h-207v700h449v-98h-345v-200h302v-94h-302v-209h355v-99z" />
    <glyph glyph-name="uni0229" unicode="&#x229;" horiz-adv-x="554" 
d="M280 510q107 0 174 -72t58 -213h-374q6 -69 44 -108.5t107 -39.5q42 0 75.5 18.5t48.5 54.5h99q-17 -71 -73 -112.5t-131 -46.5l-24 -35q38 7 69 -16.5t31 -65.5q0 -39 -26.5 -61.5t-75.5 -22.5q-32 0 -57 13.5t-34 25.5t-14 23l43 25q22 -36 60 -36q20 0 32 10.5
t12 27.5q0 16 -12.5 26.5t-36.5 10.5q-14 0 -34 -10l-32 34l35 53q-96 13 -150.5 82.5t-54.5 176.5q0 113 68.5 185.5t172.5 72.5zM142 302h274q-2 52 -38 88.5t-95 36.5q-55 0 -92.5 -33.5t-48.5 -91.5z" />
    <glyph glyph-name="uni022E" unicode="&#x22e;" horiz-adv-x="799" 
d="M397 772q-31 0 -53.5 22t-22.5 53t22.5 53t53.5 22t52.5 -22t21.5 -53t-21.5 -53t-52.5 -22zM400 -10q-150 0 -249.5 103t-99.5 257t99.5 257t249.5 103q149 0 248.5 -103t99.5 -257t-99.5 -257t-248.5 -103zM400 94q102 0 169 73.5t67 182.5t-67.5 182.5t-168.5 73.5
q-102 0 -169.5 -73.5t-67.5 -182.5t67.5 -182.5t169.5 -73.5z" />
    <glyph glyph-name="uni022F" unicode="&#x22f;" horiz-adv-x="591" 
d="M295 571q-28 0 -48.5 20t-20.5 48t20.5 48t48.5 20t47.5 -20t19.5 -48t-19.5 -48t-47.5 -20zM296 -10q-110 0 -183.5 74t-73.5 187q0 112 73 185.5t183 73.5t184 -73.5t74 -186.5t-73 -186.5t-184 -73.5zM296 82q68 0 110.5 48.5t42.5 119.5q0 70 -43 119t-111 49
q-67 0 -109.5 -48.5t-42.5 -119.5t42.5 -119.5t110.5 -48.5z" />
    <glyph glyph-name="uni0232" unicode="&#x232;" horiz-adv-x="646" 
d="M159 841h327v-75h-327v75zM499 700h128l-247 -378v-322h-113v322l-248 378h128l171 -261h9z" />
    <glyph glyph-name="uni0233" unicode="&#x233;" horiz-adv-x="563" 
d="M128 649h311v-72h-311v72zM430 500h107l-188 -556q-24 -74 -66.5 -114t-118.5 -40q-79 0 -120 44l42 73q36 -29 74 -29q30 0 53.5 22.5t35.5 57.5l14 42h-40l-196 500h111l151 -395h10z" />
    <glyph glyph-name="uni0237" unicode="&#x237;" horiz-adv-x="265" 
d="M-17 -95q26 -24 58 -24q56 0 56 68v551h102v-561q0 -69 -39.5 -109t-101.5 -40q-72 0 -108 36z" />
    <glyph glyph-name="circumflex" unicode="&#x2c6;" horiz-adv-x="449" 
d="M162 556h-93l113 144h85l114 -144h-93l-58 80h-10z" />
    <glyph glyph-name="caron" unicode="&#x2c7;" horiz-adv-x="449" 
d="M288 700h93l-113 -144h-85l-114 144h93l58 -80h10z" />
    <glyph glyph-name="breve" unicode="&#x2d8;" horiz-adv-x="407" 
d="M338 690q0 -49 -38 -84.5t-96 -35.5t-96.5 35.5t-38.5 84.5h77q0 -25 16 -42t43 -17q26 0 41.5 16.5t15.5 42.5h76z" />
    <glyph glyph-name="dotaccent" unicode="&#x2d9;" horiz-adv-x="274" 
d="M138 571q-28 0 -48.5 20t-20.5 48t20.5 48t48.5 20t47.5 -20t19.5 -48t-19.5 -48t-47.5 -20z" />
    <glyph glyph-name="ring" unicode="&#x2da;" horiz-adv-x="333" 
d="M166 538q-40 0 -68.5 28.5t-28.5 67.5q0 40 28.5 68.5t68.5 28.5t69 -28.5t29 -68.5q0 -39 -29 -67.5t-69 -28.5zM167 596q15 0 26 11.5t11 26.5q0 16 -11 27.5t-26 11.5q-16 0 -27 -11.5t-11 -27.5q0 -15 11 -26.5t27 -11.5z" />
    <glyph glyph-name="ogonek" unicode="&#x2db;" horiz-adv-x="308" 
d="M169 20l32 -20q-29 -8 -49 -28.5t-20 -42.5q0 -38 39 -47t68 10v-61q-17 -13 -58 -13q-47 0 -79.5 26t-32.5 72q0 40 27 63t73 41z" />
    <glyph glyph-name="tilde" unicode="&#x2dc;" horiz-adv-x="489" 
d="M420 642q-9 -32 -36.5 -60t-71.5 -28q-36 0 -74 24t-58 24q-33 0 -54 -44l-57 29q10 33 37.5 61t70.5 28q36 0 74 -24t57 -24q35 0 55 43z" />
    <glyph glyph-name="hungarumlaut" unicode="&#x2dd;" horiz-adv-x="473" 
d="M141 690h100l-98 -135h-75zM304 690h100l-98 -135h-75z" />
    <glyph glyph-name="uni1E02" unicode="&#x1e02;" horiz-adv-x="589" 
d="M289 772q-31 0 -53.5 22t-22.5 53t22.5 53t53.5 22t52.5 -22t21.5 -53t-21.5 -53t-52.5 -22zM417 368q136 -42 136 -176q0 -95 -65 -143.5t-163 -48.5h-256v700h231q98 0 158.5 -45.5t60.5 -129.5q0 -111 -102 -150v-7zM172 608v-201h124q57 0 88 27.5t31 75.5
q0 47 -32.5 72.5t-83.5 25.5h-127zM307 92q64 0 101 29t37 81t-36.5 84.5t-98.5 32.5h-138v-227h135z" />
    <glyph glyph-name="uni1E03" unicode="&#x1e03;" horiz-adv-x="587" 
d="M309 771q-28 0 -48.5 20t-20.5 48t20.5 48t48.5 20t47.5 -20t19.5 -48t-19.5 -48t-47.5 -20zM315 510q99 0 166 -72t67 -188q0 -115 -65 -187.5t-163 -72.5t-153 76h-11l-15 -66h-77v712h101v-279q43 77 150 77zM304 83q62 0 102 47t40 120q0 74 -39.5 120.5t-102.5 46.5
q-62 0 -100.5 -46.5t-38.5 -120.5t38.5 -120.5t100.5 -46.5z" />
    <glyph glyph-name="uni1E0A" unicode="&#x1e0a;" horiz-adv-x="683" 
d="M323 772q-31 0 -53.5 22t-22.5 53t22.5 53t53.5 22t52.5 -22t21.5 -53t-21.5 -53t-52.5 -22zM283 700q166 0 257.5 -93t91.5 -254q0 -165 -90.5 -259t-258.5 -94h-214v700h214zM282 101q117 0 179 68.5t62 186.5q0 110 -62.5 176.5t-178.5 66.5h-105v-498h105z" />
    <glyph glyph-name="uni1E0B" unicode="&#x1e0b;" horiz-adv-x="587" 
d="M284 771q-28 0 -48.5 20t-20.5 48t20.5 48t48.5 20t47.5 -20t19.5 -48t-19.5 -48t-47.5 -20zM422 712h101v-712h-77l-15 66h-11q-55 -76 -153 -76t-163 72.5t-65 187.5q0 116 67 188t166 72q107 0 150 -77v279zM283 83q62 0 100.5 46.5t38.5 120.5t-38.5 120.5
t-100.5 46.5q-63 0 -102.5 -46.5t-39.5 -120.5q0 -73 40 -120t102 -47z" />
    <glyph glyph-name="uni1E10" unicode="&#x1e10;" horiz-adv-x="683" 
d="M283 700q166 0 257.5 -93t91.5 -254q0 -165 -90.5 -259t-258.5 -94h-214v700h214zM282 101q117 0 179 68.5t62 186.5q0 110 -62.5 176.5t-178.5 66.5h-105v-498h105zM320 -56q34 0 53 -25.5t19 -65.5q0 -60 -33 -104.5t-77 -66.5l-24 30q61 48 62 98q-27 -4 -47 14.5
t-20 51.5q0 31 18.5 49.5t48.5 18.5z" />
    <glyph glyph-name="uni1E11" unicode="&#x1e11;" horiz-adv-x="587" 
d="M422 712h101v-712h-77l-15 66h-11q-55 -76 -153 -76t-163 72.5t-65 187.5q0 116 67 188t166 72q107 0 150 -77v279zM283 83q62 0 100.5 46.5t38.5 120.5t-38.5 120.5t-100.5 46.5q-63 0 -102.5 -46.5t-39.5 -120.5q0 -73 40 -120t102 -47zM297 -56q33 0 51.5 -25
t18.5 -64q0 -58 -32 -101.5t-75 -65.5l-24 30q60 47 61 95q-26 -4 -46 14t-20 50q0 30 18.5 48.5t47.5 18.5z" />
    <glyph glyph-name="uni1E1E" unicode="&#x1e1e;" horiz-adv-x="540" 
d="M288 772q-31 0 -53.5 22t-22.5 53t22.5 53t53.5 22t52.5 -22t21.5 -53t-21.5 -53t-52.5 -22zM511 599h-335v-208h291v-97h-291v-294h-107v700h442v-101z" />
    <glyph glyph-name="uni1E1F" unicode="&#x1e1f;" horiz-adv-x="398" 
d="M237 771q-28 0 -48.5 20t-20.5 48t20.5 48t48.5 20t47.5 -20t19.5 -48t-19.5 -48t-47.5 -20zM222 551v-51h128v-84h-128v-416h-102v416h-92v84h92v61q0 69 39.5 109t101.5 40q72 0 108 -36l-33 -79q-26 24 -58 24q-56 0 -56 -68z" />
    <glyph glyph-name="uni1E20" unicode="&#x1e20;" horiz-adv-x="738" 
d="M206 841h327v-75h-327v75zM359 369h309v-369h-73l-17 74h-9q-29 -31 -81.5 -57.5t-126.5 -26.5q-145 0 -227.5 96.5t-82.5 248.5q0 164 90 269.5t233 105.5q129 0 202.5 -62.5t87.5 -161.5h-112q-12 52 -57 87.5t-116 35.5q-99 0 -158.5 -75.5t-59.5 -193.5
q0 -112 57 -181.5t165 -69.5q58 0 104.5 24t73.5 54v115h-202v87z" />
    <glyph glyph-name="uni1E22" unicode="&#x1e22;" horiz-adv-x="673" 
d="M333 772q-31 0 -53.5 22t-22.5 53t22.5 53t53.5 22t52.5 -22t21.5 -53t-21.5 -53t-52.5 -22zM496 700h108v-700h-108v305h-319v-305h-108v700h108v-297h319v297z" />
    <glyph glyph-name="uni1E23" unicode="&#x1e23;" horiz-adv-x="581" 
d="M293 771q-28 0 -48.5 20t-20.5 48t20.5 48t48.5 20t47.5 -20t19.5 -48t-19.5 -48t-47.5 -20zM330 510q90 0 141 -55t51 -155v-300h-105v265q0 71 -32.5 109.5t-92.5 38.5q-49 0 -84.5 -36t-35.5 -101v-276h-108v710h108v-268h10q22 27 60.5 47.5t87.5 20.5z" />
    <glyph glyph-name="uni1E26" unicode="&#x1e26;" horiz-adv-x="673" 
d="M220 761q-28 0 -47.5 19.5t-19.5 46.5q0 28 19.5 47.5t47.5 19.5q27 0 46.5 -19.5t19.5 -47.5q0 -27 -19.5 -46.5t-46.5 -19.5zM451 761q-27 0 -46.5 19.5t-19.5 46.5q0 28 19.5 47.5t46.5 19.5t46.5 -19.5t19.5 -47.5q0 -27 -19.5 -46.5t-46.5 -19.5zM496 700h108v-700
h-108v305h-319v-305h-108v700h108v-297h319v297z" />
    <glyph glyph-name="uni1E27" unicode="&#x1e27;" horiz-adv-x="581" 
d="M200 753q-25 0 -43 18t-18 43t17.5 42.5t43.5 17.5q25 0 42.5 -17.5t17.5 -42.5t-17.5 -43t-42.5 -18zM387 753q-24 0 -42 18t-18 43t18 42.5t42 17.5q25 0 42.5 -17t17.5 -43q0 -25 -17.5 -43t-42.5 -18zM330 510q90 0 141 -55t51 -155v-300h-105v265q0 71 -32.5 109.5
t-92.5 38.5q-49 0 -84.5 -36t-35.5 -101v-276h-108v710h108v-268h10q22 27 60.5 47.5t87.5 20.5z" />
    <glyph glyph-name="uni1E28" unicode="&#x1e28;" horiz-adv-x="673" 
d="M496 700h108v-700h-108v305h-319v-305h-18l-31 -45q39 7 71 -17t32 -67q0 -40 -27.5 -63t-77.5 -23q-46 0 -72.5 22t-34.5 42l44 25q22 -37 61 -37q21 0 33 11t12 28t-13 27.5t-37 10.5q-13 0 -35 -10l-32 35l40 61h-23v700h108v-297h319v297z" />
    <glyph glyph-name="uni1E29" unicode="&#x1e29;" horiz-adv-x="581" 
d="M330 510q90 0 141 -55t51 -155v-300h-105v265q0 71 -32.5 109.5t-92.5 38.5q-49 0 -84.5 -36t-35.5 -101v-276h-20l-30 -44q38 7 69 -16.5t31 -65.5q0 -39 -26.5 -61.5t-75.5 -22.5q-32 0 -57 13.5t-34 25.5t-14 23l43 25q22 -36 60 -36q20 0 32 10.5t12 27.5
q0 16 -12.5 26.5t-36.5 10.5q-14 0 -34 -10l-32 34l39 60h-22v710h108v-268h10q22 27 60.5 47.5t87.5 20.5z" />
    <glyph glyph-name="uni1E40" unicode="&#x1e40;" horiz-adv-x="857" 
d="M426 772q-31 0 -53.5 22t-22.5 53t22.5 53t53.5 22t52.5 -22t21.5 -53t-21.5 -53t-52.5 -22zM788 700v-700h-105v534h-9l-190 -474h-111l-190 474h-10v-534h-104v700h147l209 -507h9l206 507h148z" />
    <glyph glyph-name="uni1E41" unicode="&#x1e41;" horiz-adv-x="843" 
d="M427 571q-28 0 -48.5 20t-20.5 48t20.5 48t48.5 20t47.5 -20t19.5 -48t-19.5 -48t-47.5 -20zM610 509q80 0 127 -52.5t47 -156.5v-300h-106v295q0 58 -27.5 88.5t-71.5 30.5q-42 0 -72 -32.5t-30 -89.5v-292h-106v289q0 60 -28 93t-69 33t-72.5 -31.5t-31.5 -89.5v-294
h-106v500h81l15 -62h9q19 31 55 51.5t83 20.5q53 0 90.5 -28t52.5 -64h9q19 39 56.5 65t94.5 26z" />
    <glyph glyph-name="uni1E44" unicode="&#x1e44;" horiz-adv-x="706" 
d="M351 772q-31 0 -53.5 22t-22.5 53t22.5 53t53.5 22t52.5 -22t21.5 -53t-21.5 -53t-52.5 -22zM533 700h104v-700h-110l-345 512h-9v-512h-104v700h116l338 -509h10v509z" />
    <glyph glyph-name="uni1E45" unicode="&#x1e45;" horiz-adv-x="570" 
d="M288 571q-28 0 -48.5 20t-20.5 48t20.5 48t48.5 20t47.5 -20t19.5 -48t-19.5 -48t-47.5 -20zM323 510q84 0 136.5 -56.5t52.5 -160.5v-293h-107v275q0 69 -32.5 104.5t-85.5 35.5q-48 0 -82 -34t-34 -102v-279h-107v500h81l15 -62h10q50 72 153 72z" />
    <glyph glyph-name="uni1E56" unicode="&#x1e56;" horiz-adv-x="608" 
d="M292 772q-31 0 -53.5 22t-22.5 53t22.5 53t53.5 22t52.5 -22t21.5 -53t-21.5 -53t-52.5 -22zM327 700q106 0 168 -60t62 -157q0 -102 -62.5 -160.5t-173.5 -58.5h-149v-264h-103v700h258zM311 360q66 0 101.5 32.5t35.5 90.5q0 56 -35 88t-96 32h-145v-243h139z" />
    <glyph glyph-name="uni1E57" unicode="&#x1e57;" horiz-adv-x="587" 
d="M291 571q-28 0 -48.5 20t-20.5 48t20.5 48t48.5 20t47.5 -20t19.5 -48t-19.5 -48t-47.5 -20zM320 510q98 0 163 -72.5t65 -187.5q0 -116 -67 -188t-166 -72q-107 0 -150 77v-267h-101v700h77l15 -66h11q55 76 153 76zM304 83q63 0 102.5 46.5t39.5 120.5q0 73 -40 120
t-102 47t-100.5 -46.5t-38.5 -120.5t38.5 -120.5t100.5 -46.5z" />
    <glyph glyph-name="uni1E58" unicode="&#x1e58;" horiz-adv-x="600" 
d="M290 772q-31 0 -53.5 22t-22.5 53t22.5 53t53.5 22t52.5 -22t21.5 -53t-21.5 -53t-52.5 -22zM571 0h-117l-158 276h-124v-276h-103v700h245q104 0 167 -57t63 -153q0 -69 -38 -121.5t-104 -75.5zM172 602v-228h129q63 0 98.5 31.5t35.5 83.5q0 53 -35.5 83t-98.5 30h-129
z" />
    <glyph glyph-name="uni1E59" unicode="&#x1e59;" horiz-adv-x="383" 
d="M212 571q-28 0 -48.5 20t-20.5 48t20.5 48t48.5 20t47.5 -20t19.5 -48t-19.5 -48t-47.5 -20zM320 510h33v-104q-18 5 -45 5q-58 0 -98 -41.5t-40 -124.5v-245h-106v500h81l16 -70h9q54 80 150 80z" />
    <glyph glyph-name="uni1E60" unicode="&#x1e60;" horiz-adv-x="595" 
d="M296 772q-31 0 -53.5 22t-22.5 53t22.5 53t53.5 22t52.5 -22t21.5 -53t-21.5 -53t-52.5 -22zM544 179q0 -92 -65.5 -140.5t-171.5 -48.5q-121 0 -187.5 63t-68.5 165h108q2 -61 38.5 -97.5t110.5 -36.5q56 0 91 24t35 71q0 45 -34.5 75t-121.5 59q-98 33 -152 78.5
t-54 123.5q0 89 62.5 142t159.5 53q108 0 171 -61t65 -148h-101q-3 47 -37 81t-98 34q-51 0 -82 -26.5t-31 -67.5t33.5 -67t113.5 -54q109 -39 162.5 -89.5t53.5 -132.5z" />
    <glyph glyph-name="uni1E61" unicode="&#x1e61;" horiz-adv-x="469" 
d="M235 571q-28 0 -48.5 20t-20.5 48t20.5 48t48.5 20t47.5 -20t19.5 -48t-19.5 -48t-47.5 -20zM430 132q0 -67 -53 -104.5t-135 -37.5q-91 0 -146 48t-57 125h100q1 -46 32.5 -69t72.5 -23q36 0 60 16t24 45q0 32 -28 51t-82 35q-26 7 -45.5 14.5t-43 20t-38.5 27t-25.5 37
t-10.5 48.5q0 65 51 105t129 40q82 0 131 -44t52 -108h-97q-2 32 -27 52t-63 20q-31 0 -52 -15.5t-21 -42.5q0 -28 24.5 -45.5t79.5 -34.5q81 -24 124.5 -60t43.5 -100z" />
    <glyph glyph-name="uni1E7C" unicode="&#x1e7c;" horiz-adv-x="653" 
d="M511 854q-9 -33 -38 -62.5t-75 -29.5q-38 0 -78 25t-61 25q-34 0 -57 -46l-59 30q10 34 39 64t74 30q38 0 77.5 -25.5t60.5 -25.5q37 0 57 46zM519 700h115l-233 -700h-150l-232 700h115l188 -582h10z" />
    <glyph glyph-name="uni1E7D" unicode="&#x1e7d;" horiz-adv-x="556" 
d="M453 642q-9 -32 -36.5 -60t-71.5 -28q-36 0 -74 24t-58 24q-33 0 -54 -44l-57 29q10 33 37.5 61t70.5 28q36 0 74 -24t57 -24q35 0 55 43zM423 500h107l-178 -500h-148l-178 500h108l140 -407h10z" />
    <glyph glyph-name="Wgrave" unicode="&#x1e80;" horiz-adv-x="891" 
d="M429 899l65 -141h-77l-108 141h120zM769 700h103l-138 -700h-153l-131 503h-9l-131 -503h-153l-138 700h105l110 -567h9l134 517h137l134 -517h9z" />
    <glyph glyph-name="wgrave" unicode="&#x1e81;" horiz-adv-x="740" 
d="M347 690l62 -135h-73l-103 135h114zM618 500h96l-119 -500h-127l-93 357h-9l-95 -357h-126l-119 500h97l86 -391h9l94 356h117l95 -356h9z" />
    <glyph glyph-name="Wacute" unicode="&#x1e82;" horiz-adv-x="891" 
d="M464 899h120l-108 -141h-77zM769 700h103l-138 -700h-153l-131 503h-9l-131 -503h-153l-138 700h105l110 -567h9l134 517h137l134 -517h9z" />
    <glyph glyph-name="wacute" unicode="&#x1e83;" horiz-adv-x="740" 
d="M395 690h114l-103 -135h-73zM618 500h96l-119 -500h-127l-93 357h-9l-95 -357h-126l-119 500h97l86 -391h9l94 356h117l95 -356h9z" />
    <glyph glyph-name="Wdieresis" unicode="&#x1e84;" horiz-adv-x="891" 
d="M330 761q-28 0 -47.5 19.5t-19.5 46.5q0 28 19.5 47.5t47.5 19.5q27 0 46.5 -19.5t19.5 -47.5q0 -27 -19.5 -46.5t-46.5 -19.5zM561 761q-27 0 -46.5 19.5t-19.5 46.5q0 28 19.5 47.5t46.5 19.5t46.5 -19.5t19.5 -47.5q0 -27 -19.5 -46.5t-46.5 -19.5zM769 700h103
l-138 -700h-153l-131 503h-9l-131 -503h-153l-138 700h105l110 -567h9l134 517h137l134 -517h9z" />
    <glyph glyph-name="wdieresis" unicode="&#x1e85;" horiz-adv-x="740" 
d="M278 553q-25 0 -43 18t-18 43t17.5 42.5t43.5 17.5q25 0 42.5 -17.5t17.5 -42.5t-17.5 -43t-42.5 -18zM465 553q-24 0 -42 18t-18 43t18 42.5t42 17.5q25 0 42.5 -17t17.5 -43q0 -25 -17.5 -43t-42.5 -18zM618 500h96l-119 -500h-127l-93 357h-9l-95 -357h-126l-119 500
h97l86 -391h9l94 356h117l95 -356h9z" />
    <glyph glyph-name="uni1E8C" unicode="&#x1e8c;" horiz-adv-x="625" 
d="M198 761q-28 0 -47.5 19.5t-19.5 46.5q0 28 19.5 47.5t47.5 19.5q27 0 46.5 -19.5t19.5 -47.5q0 -27 -19.5 -46.5t-46.5 -19.5zM429 761q-27 0 -46.5 19.5t-19.5 46.5q0 28 19.5 47.5t46.5 19.5t46.5 -19.5t19.5 -47.5q0 -27 -19.5 -46.5t-46.5 -19.5zM481 0l-162 268h-9
l-162 -268h-129l221 361l-210 339h127l152 -248h10l153 248h122l-210 -339l221 -361h-124z" />
    <glyph glyph-name="uni1E8D" unicode="&#x1e8d;" horiz-adv-x="527" 
d="M170 553q-25 0 -43 18t-18 43t17.5 42.5t43.5 17.5q25 0 42.5 -17.5t17.5 -42.5t-17.5 -43t-42.5 -18zM357 553q-24 0 -42 18t-18 43t18 42.5t42 17.5q25 0 42.5 -17t17.5 -43q0 -25 -17.5 -43t-42.5 -18zM382 0l-113 181h-9l-116 -181h-118l164 259l-151 241h117
l103 -164h9l102 164h117l-150 -241l164 -259h-119z" />
    <glyph glyph-name="uni1E90" unicode="&#x1e90;" horiz-adv-x="602" 
d="M239 768h-95l116 148h87l117 -148h-95l-60 82h-10zM204 100h340v-100h-493v76l346 518v7h-324v99h469v-75l-338 -518v-7z" />
    <glyph glyph-name="uni1E97" unicode="&#x1e97;" horiz-adv-x="379" 
d="M89 679q-25 0 -43 18t-18 43t17.5 42.5t43.5 17.5q25 0 42.5 -17.5t17.5 -42.5t-17.5 -43t-42.5 -18zM276 679q-24 0 -42 18t-18 43t18 42.5t42 17.5q26 0 43 -17t17 -43q0 -25 -17.5 -43t-42.5 -18zM347 14q-40 -24 -88 -24q-133 0 -133 143v283h-98v76h30q78 0 78 70
v64h93v-126h121v-84h-121v-273q0 -62 49 -62q23 0 44 14z" />
    <glyph glyph-name="uni1E98" unicode="&#x1e98;" horiz-adv-x="740" 
d="M370 538q-40 0 -68.5 28.5t-28.5 67.5q0 40 28.5 68.5t68.5 28.5t69 -28.5t29 -68.5q0 -39 -29 -67.5t-69 -28.5zM371 596q15 0 26 11.5t11 26.5q0 16 -11 27.5t-26 11.5q-16 0 -27 -11.5t-11 -27.5q0 -15 11 -26.5t27 -11.5zM618 500h96l-119 -500h-127l-93 357h-9
l-95 -357h-126l-119 500h97l86 -391h9l94 356h117l95 -356h9z" />
    <glyph glyph-name="uni1E99" unicode="&#x1e99;" horiz-adv-x="563" 
d="M282 538q-40 0 -68.5 28.5t-28.5 67.5q0 40 28.5 68.5t68.5 28.5t69 -28.5t29 -68.5q0 -39 -29 -67.5t-69 -28.5zM283 596q15 0 26 11.5t11 26.5q0 16 -11 27.5t-26 11.5q-16 0 -27 -11.5t-11 -27.5q0 -15 11 -26.5t27 -11.5zM430 500h107l-188 -556q-24 -74 -66.5 -114
t-118.5 -40q-79 0 -120 44l42 73q36 -29 74 -29q30 0 53.5 22.5t35.5 57.5l14 42h-40l-196 500h111l151 -395h10z" />
    <glyph glyph-name="uni1E9E" unicode="&#x1e9e;" horiz-adv-x="1188" 
d="M544 179q0 -92 -65.5 -140.5t-171.5 -48.5q-121 0 -187.5 63t-68.5 165h108q2 -61 38.5 -97.5t110.5 -36.5q56 0 91 24t35 71q0 45 -34.5 75t-121.5 59q-98 33 -152 78.5t-54 123.5q0 89 62.5 142t159.5 53q108 0 171 -61t65 -148h-101q-3 47 -37 81t-98 34
q-51 0 -82 -26.5t-31 -67.5t33.5 -67t113.5 -54q109 -39 162.5 -89.5t53.5 -132.5zM1137 179q0 -92 -65.5 -140.5t-171.5 -48.5q-121 0 -187.5 63t-68.5 165h108q2 -61 38.5 -97.5t110.5 -36.5q56 0 91 24t35 71q0 45 -34.5 75t-121.5 59q-98 33 -152 78.5t-54 123.5
q0 89 62.5 142t159.5 53q108 0 171 -61t65 -148h-101q-3 47 -37 81t-98 34q-51 0 -82 -26.5t-31 -67.5t33.5 -67t113.5 -54q109 -39 162.5 -89.5t53.5 -132.5z" />
    <glyph glyph-name="uni1EA0" unicode="&#x1ea0;" horiz-adv-x="657" 
d="M638 0h-115l-56 171h-277l-56 -171h-115l239 700h141zM220 264h217l-104 318h-9zM330 -67q31 0 52.5 -22t21.5 -53t-21.5 -53t-52.5 -22t-53.5 22t-22.5 53t22.5 53t53.5 22z" />
    <glyph glyph-name="uni1EA1" unicode="&#x1ea1;" horiz-adv-x="523" 
d="M458 133q0 -27 10.5 -37.5t33.5 -10.5v-85h-19q-82 0 -101 66q-63 -76 -172 -76q-76 0 -123.5 37t-47.5 105q0 148 225 166l95 7v12q0 52 -25.5 82.5t-71.5 30.5q-47 0 -72.5 -27t-30.5 -64h-98q7 75 60 123t140 48q88 0 142.5 -52.5t54.5 -147.5v-177zM222 73
q55 0 96 35t41 97v26l-76 -6q-141 -11 -141 -87q0 -32 22.5 -48.5t57.5 -16.5zM272 -71q28 0 47.5 -20t19.5 -48t-19.5 -48t-47.5 -20t-48.5 20t-20.5 48t20.5 48t48.5 20z" />
    <glyph glyph-name="uni1EB8" unicode="&#x1eb8;" horiz-adv-x="557" 
d="M173 99h355v-99h-459v700h449v-98h-345v-200h302v-94h-302v-209zM308 -217q-31 0 -53.5 22t-22.5 53t22.5 53t53.5 22t52.5 -22t21.5 -53t-21.5 -53t-52.5 -22z" />
    <glyph glyph-name="uni1EB9" unicode="&#x1eb9;" horiz-adv-x="554" 
d="M280 510q107 0 174 -72t58 -213h-374q6 -69 44 -108.5t107 -39.5q42 0 75.5 18.5t48.5 54.5h99q-18 -76 -80 -118t-144 -42q-115 0 -182 71.5t-67 190.5q0 113 68.5 185.5t172.5 72.5zM142 302h274q-2 52 -38 88.5t-95 36.5q-55 0 -92.5 -33.5t-48.5 -91.5zM281 -71
q28 0 47.5 -20t19.5 -48t-19.5 -48t-47.5 -20t-48.5 20t-20.5 48t20.5 48t48.5 20z" />
    <glyph glyph-name="uni1EBC" unicode="&#x1ebc;" horiz-adv-x="557" 
d="M478 854q-9 -33 -38 -62.5t-75 -29.5q-39 0 -79 25t-60 25q-34 0 -57 -46l-59 30q10 34 39 64t74 30q38 0 77.5 -25.5t60.5 -25.5q37 0 57 46zM173 99h355v-99h-459v700h449v-98h-345v-200h302v-94h-302v-209z" />
    <glyph glyph-name="uni1EBD" unicode="&#x1ebd;" horiz-adv-x="554" 
d="M215 602q-33 0 -54 -44l-57 29q10 33 37.5 61t70.5 28q36 0 74 -24t57 -24q35 0 55 43l57 -29q-9 -32 -36.5 -60t-71.5 -28q-36 0 -74 24t-58 24zM280 510q107 0 174 -72t58 -213h-374q6 -69 44 -108.5t107 -39.5q42 0 75.5 18.5t48.5 54.5h99q-18 -76 -80 -118t-144 -42
q-115 0 -182 71.5t-67 190.5q0 113 68.5 185.5t172.5 72.5zM142 302h274q-2 52 -38 88.5t-95 36.5q-55 0 -92.5 -33.5t-48.5 -91.5z" />
    <glyph glyph-name="uni1ECA" unicode="&#x1eca;" horiz-adv-x="249" 
d="M180 700v-700h-111v700h111zM126 -217q-31 0 -53.5 22t-22.5 53t22.5 53t53.5 22t52.5 -22t21.5 -53t-21.5 -53t-52.5 -22z" />
    <glyph glyph-name="uni1ECB" unicode="&#x1ecb;" horiz-adv-x="235" 
d="M118 571q-28 0 -48.5 20t-20.5 48t20.5 48t48.5 20t47.5 -20t19.5 -48t-19.5 -48t-47.5 -20zM169 500v-500h-103v500h103zM119 -207q-28 0 -48.5 20t-20.5 48t20.5 48t48.5 20t47.5 -20t19.5 -48t-19.5 -48t-47.5 -20z" />
    <glyph glyph-name="uni1ECC" unicode="&#x1ecc;" horiz-adv-x="799" 
d="M400 -10q-150 0 -249.5 103t-99.5 257t99.5 257t249.5 103q149 0 248.5 -103t99.5 -257t-99.5 -257t-248.5 -103zM400 94q102 0 169 73.5t67 182.5t-67.5 182.5t-168.5 73.5q-102 0 -169.5 -73.5t-67.5 -182.5t67.5 -182.5t169.5 -73.5zM400 -217q-31 0 -53.5 22
t-22.5 53t22.5 53t53.5 22t52.5 -22t21.5 -53t-21.5 -53t-52.5 -22z" />
    <glyph glyph-name="uni1ECD" unicode="&#x1ecd;" horiz-adv-x="591" 
d="M296 -10q-110 0 -183.5 74t-73.5 187q0 112 73 185.5t183 73.5t184 -73.5t74 -186.5t-73 -186.5t-184 -73.5zM296 82q68 0 110.5 48.5t42.5 119.5q0 70 -43 119t-111 49q-67 0 -109.5 -48.5t-42.5 -119.5t42.5 -119.5t110.5 -48.5zM296 -207q-28 0 -48.5 20t-20.5 48
t20.5 48t48.5 20t47.5 -20t19.5 -48t-19.5 -48t-47.5 -20z" />
    <glyph glyph-name="uni1EE4" unicode="&#x1ee4;" horiz-adv-x="693" 
d="M625 700v-420q0 -142 -77.5 -216t-199.5 -74t-200.5 74t-78.5 216v420h112v-421q0 -88 46 -137t121 -49q74 0 119.5 49t45.5 137v421h112zM348 -217q-31 0 -53.5 22t-22.5 53t22.5 53t53.5 22t52.5 -22t21.5 -53t-21.5 -53t-52.5 -22z" />
    <glyph glyph-name="uni1EE5" unicode="&#x1ee5;" horiz-adv-x="570" 
d="M249 -10q-83 0 -135.5 56.5t-52.5 160.5v293h107v-275q0 -69 32 -104.5t85 -35.5q48 0 81 34t33 102v279h108v-500h-82l-15 62h-9q-53 -72 -152 -72zM284 -207q-28 0 -48.5 20t-20.5 48t20.5 48t48.5 20t47.5 -20t19.5 -48t-19.5 -48t-47.5 -20z" />
    <glyph glyph-name="Ygrave" unicode="&#x1ef2;" horiz-adv-x="646" 
d="M307 899l65 -141h-77l-108 141h120zM499 700h128l-247 -378v-322h-113v322l-248 378h128l171 -261h9z" />
    <glyph glyph-name="ygrave" unicode="&#x1ef3;" horiz-adv-x="563" 
d="M259 690l62 -135h-73l-103 135h114zM430 500h107l-188 -556q-24 -74 -66.5 -114t-118.5 -40q-79 0 -120 44l42 73q36 -29 74 -29q30 0 53.5 22.5t35.5 57.5l14 42h-40l-196 500h111l151 -395h10z" />
    <glyph glyph-name="uni1EF8" unicode="&#x1ef8;" horiz-adv-x="646" 
d="M507 854q-9 -33 -38 -62.5t-75 -29.5q-38 0 -78 25t-61 25q-34 0 -57 -46l-59 30q10 34 39 64t74 30q38 0 77.5 -25.5t60.5 -25.5q37 0 57 46zM499 700h128l-247 -378v-322h-113v322l-248 378h128l171 -261h9z" />
    <glyph glyph-name="uni1EF9" unicode="&#x1ef9;" horiz-adv-x="563" 
d="M458 642q-9 -32 -36.5 -60t-71.5 -28q-36 0 -74 24t-58 24q-33 0 -54 -44l-57 29q10 33 37.5 61t70.5 28q36 0 74 -24t57 -24q35 0 55 43zM430 500h107l-188 -556q-24 -74 -66.5 -114t-118.5 -40q-79 0 -120 44l42 73q36 -29 74 -29q30 0 53.5 22.5t35.5 57.5l14 42h-40
l-196 500h111l151 -395h10z" />
    <glyph glyph-name="uni200B" unicode="&#x200b;" horiz-adv-x="0" 
 />
    <glyph glyph-name="endash" unicode="&#x2013;" horiz-adv-x="492" 
d="M28 355h435v-88h-435v88z" />
    <glyph glyph-name="emdash" unicode="&#x2014;" horiz-adv-x="817" 
d="M788 355v-88h-760v88h760z" />
    <glyph glyph-name="quoteleft" unicode="&#x2018;" horiz-adv-x="205" 
d="M103 506q-30 0 -47 23.5t-17 61.5q0 55 29.5 96.5t68.5 61.5l22 -28q-55 -46 -56 -90q24 3 42.5 -14t18.5 -47q0 -29 -17 -46.5t-44 -17.5z" />
    <glyph glyph-name="quoteright" unicode="&#x2019;" horiz-adv-x="205" 
d="M101 741q30 0 47 -23.5t17 -61.5q0 -55 -29.5 -96.5t-68.5 -61.5l-22 28q55 46 56 90q-24 -3 -42.5 14t-18.5 47q0 29 17 46.5t44 17.5z" />
    <glyph glyph-name="quotesinglbase" unicode="&#x201a;" horiz-adv-x="241" 
d="M120 119q30 0 47 -23.5t17 -61.5q0 -55 -29.5 -96.5t-68.5 -61.5l-22 28q55 46 56 90q-24 -3 -42.5 14t-18.5 47q0 29 17 46.5t44 17.5z" />
    <glyph glyph-name="quotedblleft" unicode="&#x201c;" horiz-adv-x="362" 
d="M103 506q-30 0 -47 23.5t-17 61.5q0 55 29.5 96.5t68.5 61.5l22 -28q-55 -46 -56 -90q24 3 42.5 -14t18.5 -47q0 -29 -17 -46.5t-44 -17.5zM261 506q-30 0 -47 23.5t-17 61.5q0 55 29.5 96.5t68.5 61.5l22 -28q-55 -46 -56 -90q24 3 42.5 -14t18.5 -47q0 -29 -17 -46.5
t-44 -17.5z" />
    <glyph glyph-name="quotedblright" unicode="&#x201d;" horiz-adv-x="363" 
d="M101 741q30 0 47 -23.5t17 -61.5q0 -55 -29.5 -96.5t-68.5 -61.5l-22 28q55 46 56 90q-24 -3 -42.5 14t-18.5 47q0 29 17 46.5t44 17.5zM259 741q30 0 47 -23.5t17 -61.5q0 -55 -29.5 -96.5t-68.5 -61.5l-22 28q55 46 56 90q-24 -3 -42.5 14t-18.5 47q0 29 17 46.5
t44 17.5z" />
    <glyph glyph-name="quotedblbase" unicode="&#x201e;" horiz-adv-x="399" 
d="M120 119q30 0 47 -23.5t17 -61.5q0 -55 -29.5 -96.5t-68.5 -61.5l-22 28q55 46 56 90q-24 -3 -42.5 14t-18.5 47q0 29 17 46.5t44 17.5zM278 119q30 0 47 -23.5t17 -61.5q0 -55 -29.5 -96.5t-68.5 -61.5l-22 28q55 46 56 90q-24 -3 -42.5 14t-18.5 47q0 29 17 46.5
t44 17.5z" />
    <glyph glyph-name="dagger" unicode="&#x2020;" horiz-adv-x="485" 
d="M456 500v-89h-167v-551h-94v551h-167v89h167v200h94v-200h167z" />
    <glyph glyph-name="daggerdbl" unicode="&#x2021;" horiz-adv-x="485" 
d="M456 411h-167v-262h167v-89h-167v-200h-94v200h-167v89h167v262h-167v89h167v200h94v-200h167v-89z" />
    <glyph glyph-name="bullet" unicode="&#x2022;" horiz-adv-x="190" 
d="M95 243q-27 0 -47 19.5t-20 46.5t20 46.5t47 19.5t46.5 -19t19.5 -47q0 -27 -19.5 -46.5t-46.5 -19.5z" />
    <glyph glyph-name="ellipsis" unicode="&#x2026;" horiz-adv-x="707" 
d="M124 -7q-27 0 -47 19.5t-20 46.5t20 46.5t47 19.5t46.5 -19t19.5 -47q0 -27 -19.5 -46.5t-46.5 -19.5zM353 -7q-27 0 -47 19.5t-20 46.5t20 46.5t47 19.5t46.5 -19t19.5 -47q0 -27 -19.5 -46.5t-46.5 -19.5zM584 -7q-27 0 -47 19.5t-20 46.5t20 46.5t47 19.5t46.5 -19
t19.5 -47q0 -27 -19.5 -46.5t-46.5 -19.5z" />
    <glyph glyph-name="perthousand" unicode="&#x2030;" horiz-adv-x="1111" 
d="M201 350q-61 0 -105.5 44t-44.5 106t44.5 106t105.5 44t105.5 -44.5t44.5 -105.5t-44.5 -105.5t-105.5 -44.5zM652 640l-434 -640h-106l433 640h107zM201 432q30 0 49 19.5t19 48.5t-19 48.5t-49 19.5t-49 -19.5t-19 -48.5t19 -48.5t49 -19.5zM569 -10q-61 0 -105.5 44
t-44.5 106t44.5 106t105.5 44t105.5 -44.5t44.5 -105.5t-44.5 -105.5t-105.5 -44.5zM922 -10q-62 0 -106 44t-44 106t44 106t106 44q61 0 105.5 -44.5t44.5 -105.5t-44.5 -105.5t-105.5 -44.5zM569 72q30 0 49 19.5t19 48.5t-19 48.5t-49 19.5t-49 -19.5t-19 -48.5t19 -48.5
t49 -19.5zM922 72q30 0 49 19.5t19 48.5t-19 48.5t-49 19.5t-49 -19.5t-19 -48.5t19 -48.5t49 -19.5z" />
    <glyph glyph-name="guilsinglleft" unicode="&#x2039;" horiz-adv-x="304" 
d="M150 97l-131 202l131 202h116l-133 -202l133 -202h-116z" />
    <glyph glyph-name="guilsinglright" unicode="&#x203a;" horiz-adv-x="304" 
d="M154 97h-116l133 202l-133 202h116l131 -202z" />
    <glyph glyph-name="uni2042" unicode="&#x2042;" horiz-adv-x="810" 
d="M526 429l-92 61l6 -110h-70l7 111l-93 -62l-35 62l99 49l-99 49l35 62l93 -62l-7 111h70l-6 -111l92 62l35 -62l-99 -49l99 -49zM316 271l35 -62l-99 -49l99 -49l-35 -62l-92 61l6 -110h-70l7 111l-93 -62l-35 62l99 49l-99 49l35 62l93 -62l-7 111h70l-6 -111zM771 209
l-99 -49l99 -49l-35 -62l-92 61l6 -110h-70l7 111l-93 -62l-35 62l99 49l-99 49l35 62l93 -62l-7 111h70l-6 -111l92 62z" />
    <glyph glyph-name="fraction" unicode="&#x2044;" horiz-adv-x="292" 
d="M436 640l-498 -640h-82l498 640h82z" />
    <glyph glyph-name="uni2051" unicode="&#x2051;" horiz-adv-x="390" 
d="M351 589l-99 -49l99 -49l-35 -62l-92 61l6 -110h-70l7 111l-93 -62l-35 62l99 49l-99 49l35 62l93 -62l-7 111h70l-6 -111l92 62zM316 271l35 -62l-99 -49l99 -49l-35 -62l-92 61l6 -110h-70l7 111l-93 -62l-35 62l99 49l-99 49l35 62l93 -62l-7 111h70l-6 -111z" />
    <glyph glyph-name="uni2070" unicode="&#x2070;" horiz-adv-x="370" 
d="M186 336q-68 0 -111 52.5t-43 143.5t43 144t110 53t110 -53t43 -145q0 -91 -43 -143t-109 -52zM186 406q37 0 58.5 33t21.5 92q0 58 -21.5 92t-59.5 34q-39 0 -60 -34t-21 -92t21.5 -91.5t60.5 -33.5z" />
    <glyph glyph-name="uni2074" unicode="&#x2074;" horiz-adv-x="368" 
d="M345 479v-58h-65v-81h-63v81h-190v38l160 266h93v-246h65zM105 479h112v171h-6z" />
    <glyph glyph-name="uni2075" unicode="&#x2075;" horiz-adv-x="350" 
d="M184 595q61 0 97.5 -37.5t36.5 -94.5q0 -58 -40 -93t-104 -35q-68 0 -105 36.5t-37 86.5h67q2 -30 23 -48t53 -18q33 0 54.5 20.5t21.5 51.5q0 33 -20.5 55.5t-56.5 22.5q-45 0 -71 -39l-63 17l21 205h237v-60h-180l-11 -93q29 23 77 23z" />
    <glyph glyph-name="uni2076" unicode="&#x2076;" horiz-adv-x="356" 
d="M195 587q58 0 93.5 -35t35.5 -89q0 -57 -40.5 -92.5t-106.5 -35.5q-64 0 -104.5 36t-40.5 100q0 50 54 128l88 126h82l-115 -149q20 11 54 11zM179 391q37 0 58.5 20.5t21.5 50.5t-21.5 50t-58.5 20q-38 0 -59.5 -20t-21.5 -50t21.5 -50.5t59.5 -20.5z" />
    <glyph glyph-name="uni2077" unicode="&#x2077;" horiz-adv-x="325" 
d="M27 725h275v-47q-147 -127 -153 -338h-69q3 112 41.5 197.5t86.5 128.5h-181v59z" />
    <glyph glyph-name="uni2078" unicode="&#x2078;" horiz-adv-x="376" 
d="M264 547q35 -9 57.5 -36t22.5 -62q0 -54 -43 -84t-114 -30q-70 0 -112.5 30t-42.5 84q0 37 23.5 62.5t57.5 35.5v5q-59 23 -59 76q0 44 37.5 73t97.5 29t97 -28.5t37 -71.5q0 -27 -16.5 -47.5t-42.5 -30.5v-5zM188 678q-31 0 -50.5 -14t-19.5 -38q0 -26 21 -40.5
t48 -14.5q29 0 50.5 14.5t21.5 40.5q0 24 -20 38t-51 14zM187 388q40 0 62.5 16.5t22.5 45.5q0 27 -22 46.5t-63 19.5q-40 0 -61 -19.5t-21 -47.5t21 -44.5t61 -16.5z" />
    <glyph glyph-name="uni2079" unicode="&#x2079;" horiz-adv-x="356" 
d="M161 478q-58 0 -93.5 35t-35.5 89q0 57 40.5 92.5t106.5 35.5q64 0 104.5 -36t40.5 -100q0 -50 -54 -128l-88 -126h-82l115 149q-20 -11 -54 -11zM177 674q-37 0 -58.5 -20.5t-21.5 -50.5t21.5 -50t58.5 -20q38 0 59.5 20t21.5 50t-21.5 50.5t-59.5 20.5z" />
    <glyph glyph-name="uni2080" unicode="&#x2080;" horiz-adv-x="370" 
d="M186 -104q-68 0 -111 52.5t-43 143.5t43 144t110 53t110 -53t43 -145q0 -91 -43 -143t-109 -52zM186 -34q37 0 58.5 33t21.5 92q0 58 -21.5 92t-59.5 34q-39 0 -60 -34t-21 -92t21.5 -91.5t60.5 -33.5z" />
    <glyph glyph-name="uni2081" unicode="&#x2081;" horiz-adv-x="242" 
d="M118 -100v253h-91v61h51q43 0 43 45v26h69v-385h-72z" />
    <glyph glyph-name="uni2082" unicode="&#x2082;" horiz-adv-x="334" 
d="M202 57q-90 -50 -92 -96h190v-61h-268v25q0 103 101 162q9 5 23.5 13t21.5 12.5t17 11t15 11t10.5 11t7.5 13.5t2 15q0 23 -15.5 38t-42.5 15q-32 0 -49 -20.5t-19 -48.5h-71q0 51 36.5 91.5t106.5 40.5q53 0 89.5 -30.5t36.5 -79.5q0 -31 -17 -56.5t-35 -38t-48 -28.5z
" />
    <glyph glyph-name="uni2083" unicode="&#x2083;" horiz-adv-x="343" 
d="M239 103q32 -9 52 -35t20 -59q0 -51 -38 -83t-108 -32q-69 0 -104 35t-39 91h68q2 -28 22 -47.5t55 -19.5q34 0 54.5 16.5t20.5 42.5q0 29 -22.5 45.5t-61.5 16.5h-18v57h21q31 0 49 14t18 36t-16.5 36t-42.5 14t-43 -14t-20 -37h-68q0 48 38 79t94 31q55 0 91 -28.5
t36 -70.5q0 -53 -58 -83v-5z" />
    <glyph glyph-name="uni2084" unicode="&#x2084;" horiz-adv-x="368" 
d="M345 39v-58h-65v-81h-63v81h-190v38l160 266h93v-246h65zM105 39h112v171h-6z" />
    <glyph glyph-name="uni2085" unicode="&#x2085;" horiz-adv-x="350" 
d="M184 155q61 0 97.5 -37.5t36.5 -94.5q0 -58 -40 -93t-104 -35q-68 0 -105 36.5t-37 86.5h67q2 -30 23 -48t53 -18q33 0 54.5 20.5t21.5 51.5q0 33 -20.5 55.5t-56.5 22.5q-45 0 -71 -39l-63 17l21 205h237v-60h-180l-11 -93q29 23 77 23z" />
    <glyph glyph-name="uni2086" unicode="&#x2086;" horiz-adv-x="356" 
d="M195 147q58 0 93.5 -35t35.5 -89q0 -57 -40.5 -92.5t-106.5 -35.5q-64 0 -104.5 36t-40.5 100q0 50 54 128l88 126h82l-115 -149q20 11 54 11zM179 -49q37 0 58.5 20.5t21.5 50.5t-21.5 50t-58.5 20q-38 0 -59.5 -20t-21.5 -50t21.5 -50.5t59.5 -20.5z" />
    <glyph glyph-name="uni2087" unicode="&#x2087;" horiz-adv-x="325" 
d="M27 285h275v-47q-147 -127 -153 -338h-69q3 112 41.5 197.5t86.5 128.5h-181v59z" />
    <glyph glyph-name="uni2088" unicode="&#x2088;" horiz-adv-x="376" 
d="M264 107q35 -9 57.5 -36t22.5 -62q0 -54 -43 -84t-114 -30q-70 0 -112.5 30t-42.5 84q0 37 23.5 62.5t57.5 35.5v5q-59 23 -59 76q0 44 37.5 73t97.5 29t97 -28.5t37 -71.5q0 -27 -16.5 -47.5t-42.5 -30.5v-5zM188 238q-31 0 -50.5 -14t-19.5 -38q0 -26 21 -40.5
t48 -14.5q29 0 50.5 14.5t21.5 40.5q0 24 -20 38t-51 14zM187 -52q40 0 62.5 16.5t22.5 45.5q0 27 -22 46.5t-63 19.5q-40 0 -61 -19.5t-21 -47.5t21 -44.5t61 -16.5z" />
    <glyph glyph-name="uni2089" unicode="&#x2089;" horiz-adv-x="356" 
d="M161 38q-58 0 -93.5 35t-35.5 89q0 57 40.5 92.5t106.5 35.5q64 0 104.5 -36t40.5 -100q0 -50 -54 -128l-88 -126h-82l115 149q-20 -11 -54 -11zM177 234q-37 0 -58.5 -20.5t-21.5 -50.5t21.5 -50t58.5 -20q38 0 59.5 20t21.5 50t-21.5 50.5t-59.5 20.5z" />
    <glyph glyph-name="Euro" unicode="&#x20ac;" horiz-adv-x="659" 
d="M414 81q105 0 162 57l37 -76q-74 -72 -202 -72q-107 0 -181.5 59.5t-100.5 164.5h-80v71h69q-1 10 -1 32q0 15 2 41h-70v73h83q27 101 101.5 160t181.5 59q123 0 198 -81l-47 -72q-58 63 -155 63q-65 0 -110 -34t-66 -95h291l-21 -73h-285q-2 -24 -2 -38q0 -24 1 -35h255
l-20 -71h-220q21 -63 67 -98t113 -35z" />
    <glyph glyph-name="uni2113" unicode="&#x2113;" horiz-adv-x="438" 
d="M200 191q0 -115 98 -115q54 0 84 22v-87q-34 -21 -100 -21q-76 0 -122.5 45.5t-46.5 134.5v68q-39 -9 -85 -15v79q32 6 85 19v165q0 75 38.5 119.5t104.5 44.5q67 0 105 -41.5t38 -108.5q0 -162 -199 -237v-72zM200 476v-124q116 52 116 139q0 36 -15.5 57.5t-42.5 21.5
q-58 0 -58 -94z" />
    <glyph glyph-name="trademark" unicode="&#x2122;" horiz-adv-x="795" 
d="M28 634v66h274v-66h-100v-284h-74v284h-100zM626 700h100v-350h-69v239h-5l-75 -199h-74l-76 200h-6v-240h-69v350h100l84 -227h6z" />
    <glyph glyph-name="uni2153" unicode="&#x2153;" horiz-adv-x="785" 
d="M118 255v253h-91v61h51q43 0 43 45v26h69v-385h-72zM649 640l-498 -640h-82l498 640h82zM681 203q32 -9 52 -35t20 -59q0 -51 -38 -83t-108 -32q-69 0 -104 35t-39 91h68q2 -28 22 -47.5t55 -19.5q34 0 54.5 16.5t20.5 42.5q0 29 -22.5 45.5t-61.5 16.5h-18v57h21
q31 0 49 14t18 36t-16.5 36t-42.5 14t-43 -14t-20 -37h-68q0 48 38 79t94 31q55 0 91 -28.5t36 -70.5q0 -53 -58 -83v-5z" />
    <glyph glyph-name="uni2154" unicode="&#x2154;" horiz-adv-x="885" 
d="M202 412q-90 -50 -92 -96h190v-61h-268v25q0 103 101 162q9 5 23.5 13t21.5 12.5t17 11t15 11t10.5 11t7.5 13.5t2 15q0 23 -15.5 38t-42.5 15q-32 0 -49 -20.5t-19 -48.5h-71q0 51 36.5 91.5t106.5 40.5q53 0 89.5 -30.5t36.5 -79.5q0 -31 -17 -56.5t-35 -38t-48 -28.5z
M749 640l-498 -640h-82l498 640h82zM781 203q32 -9 52 -35t20 -59q0 -51 -38 -83t-108 -32q-69 0 -104 35t-39 91h68q2 -28 22 -47.5t55 -19.5q34 0 54.5 16.5t20.5 42.5q0 29 -22.5 45.5t-61.5 16.5h-18v57h21q31 0 49 14t18 36t-16.5 36t-42.5 14t-43 -14t-20 -37h-68
q0 48 38 79t94 31q55 0 91 -28.5t36 -70.5q0 -53 -58 -83v-5z" />
    <glyph glyph-name="arrowup" unicode="&#x2191;" horiz-adv-x="697" 
d="M658 440l-65 -66l-198 200v-579h-92v581l-199 -202l-65 66l304 295h10z" />
    <glyph glyph-name="arrowdown" unicode="&#x2193;" horiz-adv-x="697" 
d="M593 321l65 -66l-304 -295h-10l-305 295l65 66l198 -200v579h92v-581z" />
    <glyph glyph-name="arrowboth" unicode="&#x2194;" horiz-adv-x="993" 
d="M679 620l295 -305v-10l-295 -304l-66 65l202 199h-637l202 -199l-66 -65l-295 304v10l295 305l66 -65l-200 -198h633l-200 198z" />
    <glyph glyph-name="arrowupdn" unicode="&#x2195;" horiz-adv-x="697" 
d="M395 25l198 200l65 -66l-305 -295h-10l-304 295l65 66l199 -202v635l-199 -202l-65 66l304 295h10l305 -295l-65 -66l-198 200v-631z" />
    <glyph glyph-name="uni2196" unicode="&#x2196;" horiz-adv-x="620" 
d="M601 73l-68 -66l-405 406v-287h-90v435l10 8h435v-89h-290z" />
    <glyph glyph-name="uni2197" unicode="&#x2197;" horiz-adv-x="620" 
d="M572 569l10 -8v-435h-90v287l-405 -406l-68 66l408 407h-290v89h435z" />
    <glyph glyph-name="uni2198" unicode="&#x2198;" horiz-adv-x="620" 
d="M493 521h89v-435l-8 -10h-435v90h287l-406 405l66 68l407 -408v290z" />
    <glyph glyph-name="uni2199" unicode="&#x2199;" horiz-adv-x="620" 
d="M601 571l-406 -405h287v-90h-435l-8 10v435h89v-290l407 408z" />
    <glyph glyph-name="partialdiff" unicode="&#x2202;" horiz-adv-x="592" 
d="M541 323q0 -173 -66 -253t-184 -80q-100 0 -170 66t-70 170q0 101 64 165.5t163 64.5q65 0 113 -29t65 -70q-18 264 -169 264q-53 0 -83.5 -28.5t-40.5 -65.5h-93q8 72 66.5 127.5t148.5 55.5q128 0 192 -100t64 -287zM292 77q64 0 104.5 43.5t40.5 107.5q0 62 -42 101.5
t-106 39.5t-103.5 -40.5t-39.5 -104.5t41.5 -105.5t104.5 -41.5z" />
    <glyph glyph-name="emptyset" unicode="&#x2205;" horiz-adv-x="777" 
d="M718 593l-70 -69q70 -89 70 -204q0 -137 -96 -233.5t-233 -96.5q-115 0 -204 71l-72 -71l-54 57l70 70q-70 91 -70 203q0 137 96.5 233.5t233.5 96.5q116 0 204 -71l71 71zM150 320q0 -77 43 -139l337 335q-63 46 -142 46q-98 0 -168 -71t-70 -171zM627 320q0 78 -43 140
l-336 -336q62 -46 140 -46q98 0 168.5 71t70.5 171z" />
    <glyph glyph-name="product" unicode="&#x220f;" horiz-adv-x="643" 
d="M69 700h506v-700h-88v619h-329v-619h-89v700z" />
    <glyph glyph-name="summation" unicode="&#x2211;" horiz-adv-x="509" 
d="M28 626v74h451v-79h-331l256 -248v-46l-256 -247h331v-80h-451v74l281 272v8z" />
    <glyph glyph-name="minus" unicode="&#x2212;" horiz-adv-x="546" 
d="M66 323h414v-86h-414v86z" />
    <glyph glyph-name="radical" unicode="&#x221a;" horiz-adv-x="661" 
d="M441 700h190v-88h-118l-206 -612h-126l-155 399h102l112 -297h9z" />
    <glyph glyph-name="infinity" unicode="&#x221e;" horiz-adv-x="791" 
d="M577 510q70 0 122.5 -48.5t52.5 -125.5t-52.5 -125.5t-122.5 -48.5q-106 0 -178 107h-7q-72 -107 -179 -107q-70 0 -122 48.5t-52 125.5t52 125.5t122 48.5q107 0 179 -107h7q72 107 178 107zM223 245q74 0 128 91q-54 91 -128 91q-38 0 -66 -25t-28 -66t28 -66t66 -25z
M568 245q38 0 66 25t28 66t-28 66t-66 25q-76 0 -128 -91q52 -91 128 -91z" />
    <glyph glyph-name="integral" unicode="&#x222b;" horiz-adv-x="564" 
d="M437 710q68 0 107 -41l-38 -69q-26 26 -60 26q-57 0 -68 -69l-102 -628q-11 -68 -50.5 -103.5t-99.5 -35.5q-68 0 -107 41l39 69q26 -26 59 -26q58 0 68 69l102 628q11 68 50.5 103.5t99.5 35.5z" />
    <glyph glyph-name="approxequal" unicode="&#x2248;" horiz-adv-x="615" 
d="M557 434q-5 -18 -14.5 -36.5t-26.5 -41.5t-46 -37.5t-64 -14.5q-33 0 -62 12.5t-46 27t-41 27t-49 12.5q-55 0 -86 -69l-64 22q5 19 14.5 37.5t26.5 41.5t46 37.5t65 14.5q41 0 74.5 -19.5t62.5 -39.5t60 -20q56 0 87 69zM557 222q-5 -18 -14.5 -36.5t-26.5 -41.5
t-46 -37.5t-64 -14.5q-33 0 -62 12.5t-46 27t-41 27t-49 12.5q-55 0 -86 -69l-64 22q5 19 14.5 37.5t26.5 41.5t46 37.5t65 14.5q41 0 74.5 -19.5t62.5 -39.5t60 -20q56 0 87 69z" />
    <glyph glyph-name="notequal" unicode="&#x2260;" horiz-adv-x="545" 
d="M495 344h-142l-80 -128h222v-88h-276l-67 -108l-58 36l44 72h-89v88h144l79 128h-223v88h277l67 109l59 -37l-45 -72h88v-88z" />
    <glyph glyph-name="lessequal" unicode="&#x2264;" horiz-adv-x="542" 
d="M484 586v-95l-328 -128v-7l328 -129v-95l-426 167v119zM484 0h-426v85h426v-85z" />
    <glyph glyph-name="greaterequal" unicode="&#x2265;" horiz-adv-x="542" 
d="M58 586l426 -168v-119l-426 -167v95l328 129v7l-328 128v95zM58 0v85h426v-85h-426z" />
    <glyph glyph-name="lozenge" unicode="&#x25ca;" horiz-adv-x="618" 
d="M309 570l290 -290l-290 -290l-290 290zM309 443l-162 -163l162 -163l163 163z" />
    <glyph glyph-name="smileface" unicode="&#x263a;" 
d="M771 350q0 -150 -105 -255t-255 -105t-255 106t-105 254q0 149 105.5 254.5t254.5 105.5q151 0 255.5 -105.5t104.5 -254.5zM223 533v-45h44v-128h46v128h44v45h-134zM465 533v-45h45v-128h45v128h45v45h-135zM411 81q109 0 187 76t81 183l-46 8q0 -92 -65 -156.5
t-157 -64.5q-91 0 -156 64.5t-65 156.5l-46 -8q3 -107 81 -183t186 -76z" />
    <glyph glyph-name="uni2731" unicode="&#x2731;" horiz-adv-x="545" 
d="M484 355l-139 -75l139 -75l-41 -70l-134 82l4 -157h-81l4 157l-134 -82l-41 70l139 75l-139 75l41 70l134 -82l-4 157h81l-4 -157l134 82z" />
    <glyph glyph-name="uni2780" unicode="&#x2780;" 
d="M411 -10q-149 0 -254.5 105t-105.5 255t105.5 255t254.5 105q148 0 254 -105t106 -255t-106 -255t-254 -105zM411 50q123 0 211 87.5t88 212.5t-88 212.5t-211 87.5t-210 -87.5t-87 -212.5t87 -212.5t210 -87.5zM389 155v253h-91v61h51q43 0 43 45v26h69v-385h-72z" />
    <glyph glyph-name="uni2781" unicode="&#x2781;" 
d="M411 -10q-149 0 -254.5 105t-105.5 255t105.5 255t254.5 105q148 0 254 -105t106 -255t-106 -255t-254 -105zM411 50q123 0 211 87.5t88 212.5t-88 212.5t-211 87.5t-210 -87.5t-87 -212.5t87 -212.5t210 -87.5zM446 326q-90 -50 -92 -96h190v-61h-268v25q0 103 101 162
q9 5 23.5 13t21.5 12.5t17 11t15 11t10.5 11t7.5 13.5t2 15q0 23 -15.5 38t-42.5 15q-32 0 -49 -20.5t-19 -48.5h-71q0 51 36.5 91.5t106.5 40.5q53 0 89.5 -30.5t36.5 -79.5q0 -31 -17 -56.5t-35 -38t-48 -28.5z" />
    <glyph glyph-name="uni2782" unicode="&#x2782;" 
d="M411 -10q-149 0 -254.5 105t-105.5 255t105.5 255t254.5 105q148 0 254 -105t106 -255t-106 -255t-254 -105zM411 50q123 0 211 87.5t88 212.5t-88 212.5t-211 87.5t-210 -87.5t-87 -212.5t87 -212.5t210 -87.5zM482 361q32 -9 52 -35t20 -59q0 -51 -38 -83t-108 -32
q-68 0 -103.5 35t-39.5 91h68q2 -28 22 -47.5t55 -19.5q34 0 54.5 16.5t20.5 42.5q0 29 -22.5 45.5t-61.5 16.5h-18v57h21q31 0 49 14t18 36t-16.5 36t-42.5 14t-43 -14t-20 -37h-68q0 48 38 79t94 31q55 0 91 -28.5t36 -70.5q0 -53 -58 -83v-5z" />
    <glyph glyph-name="uni2783" unicode="&#x2783;" 
d="M411 -10q-149 0 -254.5 105t-105.5 255t105.5 255t254.5 105q148 0 254 -105t106 -255t-106 -255t-254 -105zM411 50q123 0 211 87.5t88 212.5t-88 212.5t-211 87.5t-210 -87.5t-87 -212.5t87 -212.5t210 -87.5zM555 296v-58h-65v-81h-63v81h-190v38l160 266h93v-246h65z
M315 296h112v171h-6z" />
    <glyph glyph-name="uni2784" unicode="&#x2784;" 
d="M411 -10q-149 0 -254.5 105t-105.5 255t105.5 255t254.5 105q148 0 254 -105t106 -255t-106 -255t-254 -105zM411 50q123 0 211 87.5t88 212.5t-88 212.5t-211 87.5t-210 -87.5t-87 -212.5t87 -212.5t210 -87.5zM422 410q61 0 97.5 -37.5t36.5 -94.5q0 -58 -40 -93
t-104 -35q-68 0 -105 36.5t-37 86.5h67q2 -30 23 -48t53 -18q33 0 54.5 20.5t21.5 51.5q0 33 -20.5 55.5t-56.5 22.5q-45 0 -71 -39l-63 17l21 205h237v-60h-180l-11 -93q29 23 77 23z" />
    <glyph glyph-name="uni2785" unicode="&#x2785;" 
d="M411 -10q-149 0 -254.5 105t-105.5 255t105.5 255t254.5 105q148 0 254 -105t106 -255t-106 -255t-254 -105zM411 50q123 0 211 87.5t88 212.5t-88 212.5t-211 87.5t-210 -87.5t-87 -212.5t87 -212.5t210 -87.5zM424 411q58 0 93.5 -35t35.5 -89q0 -57 -40.5 -92.5
t-106.5 -35.5q-64 0 -104.5 36t-40.5 100q0 50 54 128l88 126h82l-115 -149q20 11 54 11zM408 215q37 0 58.5 20.5t21.5 50.5t-21.5 50t-58.5 20q-38 0 -59.5 -20t-21.5 -50t21.5 -50.5t59.5 -20.5z" />
    <glyph glyph-name="uni2786" unicode="&#x2786;" 
d="M411 -10q-149 0 -254.5 105t-105.5 255t105.5 255t254.5 105q148 0 254 -105t106 -255t-106 -255t-254 -105zM411 50q123 0 211 87.5t88 212.5t-88 212.5t-211 87.5t-210 -87.5t-87 -212.5t87 -212.5t210 -87.5zM285 530h275v-47q-147 -127 -153 -338h-69
q3 112 41.5 197.5t86.5 128.5h-181v59z" />
    <glyph glyph-name="uni2787" unicode="&#x2787;" 
d="M411 -10q-149 0 -254.5 105t-105.5 255t105.5 255t254.5 105q148 0 254 -105t106 -255t-106 -255t-254 -105zM411 50q123 0 211 87.5t88 212.5t-88 212.5t-211 87.5t-210 -87.5t-87 -212.5t87 -212.5t210 -87.5zM487 367q35 -9 57.5 -36t22.5 -62q0 -54 -43 -84t-114 -30
q-70 0 -112.5 30t-42.5 84q0 37 23.5 62.5t57.5 35.5v5q-59 23 -59 76q0 44 37.5 73t97.5 29t97 -28.5t37 -71.5q0 -27 -16.5 -47.5t-42.5 -30.5v-5zM411 498q-31 0 -50.5 -14t-19.5 -38q0 -26 21 -40.5t48 -14.5q29 0 50.5 14.5t21.5 40.5q0 24 -20 38t-51 14zM410 208
q40 0 62.5 16.5t22.5 45.5q0 27 -22 46.5t-63 19.5q-40 0 -61 -19.5t-21 -47.5t21 -44.5t61 -16.5z" />
    <glyph glyph-name="uni2788" unicode="&#x2788;" 
d="M411 -10q-149 0 -254.5 105t-105.5 255t105.5 255t254.5 105q148 0 254 -105t106 -255t-106 -255t-254 -105zM411 50q123 0 211 87.5t88 212.5t-88 212.5t-211 87.5t-210 -87.5t-87 -212.5t87 -212.5t210 -87.5zM393 292q-58 0 -93.5 35t-35.5 89q0 57 40.5 92.5
t106.5 35.5q64 0 104.5 -36t40.5 -100q0 -50 -54 -128l-88 -126h-82l115 149q-20 -11 -54 -11zM409 488q-37 0 -58.5 -20.5t-21.5 -50.5t21.5 -50t58.5 -20q38 0 59.5 20t21.5 50t-21.5 50.5t-59.5 20.5z" />
    <glyph glyph-name="uni2789" unicode="&#x2789;" 
d="M411 -10q-149 0 -254.5 105t-105.5 255t105.5 255t254.5 105q148 0 254 -105t106 -255t-106 -255t-254 -105zM411 50q123 0 211 87.5t88 212.5t-88 212.5t-211 87.5t-210 -87.5t-87 -212.5t87 -212.5t210 -87.5zM500 190q-55 0 -89.5 42t-34.5 115t34.5 115t88.5 42
t88.5 -42.5t34.5 -115.5t-34 -114.5t-88 -41.5zM273 193v199h-73v52h41q35 0 35 36v21h59v-308h-62zM500 248q29 0 44.5 26.5t15.5 71.5t-16 71t-45 26t-45 -26t-16 -71t16 -71.5t46 -26.5z" />
    <glyph glyph-name="uni278A" unicode="&#x278a;" 
d="M411 -10q149 0 254.5 105.5t105.5 254.5t-105.5 254.5t-254.5 105.5t-254.5 -105.5t-105.5 -254.5t105.5 -254.5t254.5 -105.5zM389 155v253h-91v61h51q43 0 43 45v26h69v-385h-72z" />
    <glyph glyph-name="uni278B" unicode="&#x278b;" 
d="M411 -10q149 0 254.5 105.5t105.5 254.5t-105.5 254.5t-254.5 105.5t-254.5 -105.5t-105.5 -254.5t105.5 -254.5t254.5 -105.5zM446 326q-90 -50 -92 -96h190v-61h-268v25q0 103 101 162q9 5 23.5 13t21.5 12.5t17 11t15 11t10.5 11t7.5 13.5t2 15q0 23 -15.5 38
t-42.5 15q-32 0 -49 -20.5t-19 -48.5h-71q0 51 36.5 91.5t106.5 40.5q53 0 89.5 -30.5t36.5 -79.5q0 -31 -17 -56.5t-35 -38t-48 -28.5z" />
    <glyph glyph-name="uni278C" unicode="&#x278c;" 
d="M411 -10q149 0 254.5 105.5t105.5 254.5t-105.5 254.5t-254.5 105.5t-254.5 -105.5t-105.5 -254.5t105.5 -254.5t254.5 -105.5zM482 361q32 -9 52 -35t20 -59q0 -51 -38 -83t-108 -32q-68 0 -103.5 35t-39.5 91h68q2 -28 22 -47.5t55 -19.5q34 0 54.5 16.5t20.5 42.5
q0 29 -22.5 45.5t-61.5 16.5h-18v57h21q31 0 49 14t18 36t-16.5 36t-42.5 14t-43 -14t-20 -37h-68q0 48 38 79t94 31q55 0 91 -28.5t36 -70.5q0 -53 -58 -83v-5z" />
    <glyph glyph-name="uni278D" unicode="&#x278d;" 
d="M411 -10q149 0 254.5 105.5t105.5 254.5t-105.5 254.5t-254.5 105.5t-254.5 -105.5t-105.5 -254.5t105.5 -254.5t254.5 -105.5zM555 296v-58h-65v-81h-63v81h-190v38l160 266h93v-246h65zM315 296h112v171h-6z" />
    <glyph glyph-name="uni278E" unicode="&#x278e;" 
d="M411 -10q149 0 254.5 105.5t105.5 254.5t-105.5 254.5t-254.5 105.5t-254.5 -105.5t-105.5 -254.5t105.5 -254.5t254.5 -105.5zM422 410q61 0 97.5 -37.5t36.5 -94.5q0 -58 -40 -93t-104 -35q-68 0 -105 36.5t-37 86.5h67q2 -30 23 -48t53 -18q33 0 54.5 20.5t21.5 51.5
q0 33 -20.5 55.5t-56.5 22.5q-45 0 -71 -39l-63 17l21 205h237v-60h-180l-11 -93q29 23 77 23z" />
    <glyph glyph-name="uni278F" unicode="&#x278f;" 
d="M411 -10q149 0 254.5 105.5t105.5 254.5t-105.5 254.5t-254.5 105.5t-254.5 -105.5t-105.5 -254.5t105.5 -254.5t254.5 -105.5zM424 411q58 0 93.5 -35t35.5 -89q0 -57 -40.5 -92.5t-106.5 -35.5q-64 0 -104.5 36t-40.5 100q0 50 54 128l88 126h82l-115 -149q20 11 54 11
zM408 215q37 0 58.5 20.5t21.5 50.5t-21.5 50t-58.5 20q-38 0 -59.5 -20t-21.5 -50t21.5 -50.5t59.5 -20.5z" />
    <glyph glyph-name="uni2790" unicode="&#x2790;" 
d="M411 -10q149 0 254.5 105.5t105.5 254.5t-105.5 254.5t-254.5 105.5t-254.5 -105.5t-105.5 -254.5t105.5 -254.5t254.5 -105.5zM285 530h275v-47q-147 -127 -153 -338h-69q3 112 41.5 197.5t86.5 128.5h-181v59z" />
    <glyph glyph-name="uni2791" unicode="&#x2791;" 
d="M411 -10q149 0 254.5 105.5t105.5 254.5t-105.5 254.5t-254.5 105.5t-254.5 -105.5t-105.5 -254.5t105.5 -254.5t254.5 -105.5zM487 367q35 -9 57.5 -36t22.5 -62q0 -54 -43 -84t-114 -30q-70 0 -112.5 30t-42.5 84q0 37 23.5 62.5t57.5 35.5v5q-59 23 -59 76
q0 44 37.5 73t97.5 29t97 -28.5t37 -71.5q0 -27 -16.5 -47.5t-42.5 -30.5v-5zM411 498q-31 0 -50.5 -14t-19.5 -38q0 -26 21 -40.5t48 -14.5q29 0 50.5 14.5t21.5 40.5q0 24 -20 38t-51 14zM410 208q40 0 62.5 16.5t22.5 45.5q0 27 -22 46.5t-63 19.5q-40 0 -61 -19.5
t-21 -47.5t21 -44.5t61 -16.5z" />
    <glyph glyph-name="uni2792" unicode="&#x2792;" 
d="M411 -10q149 0 254.5 105.5t105.5 254.5t-105.5 254.5t-254.5 105.5t-254.5 -105.5t-105.5 -254.5t105.5 -254.5t254.5 -105.5zM393 292q-58 0 -93.5 35t-35.5 89q0 57 40.5 92.5t106.5 35.5q64 0 104.5 -36t40.5 -100q0 -50 -54 -128l-88 -126h-82l115 149
q-20 -11 -54 -11zM409 488q-37 0 -58.5 -20.5t-21.5 -50.5t21.5 -50t58.5 -20q38 0 59.5 20t21.5 50t-21.5 50.5t-59.5 20.5z" />
    <glyph glyph-name="uni2793" unicode="&#x2793;" 
d="M411 -10q149 0 254.5 105.5t105.5 254.5t-105.5 254.5t-254.5 105.5t-254.5 -105.5t-105.5 -254.5t105.5 -254.5t254.5 -105.5zM500 190q-55 0 -89.5 42t-34.5 115t34.5 115t88.5 42t88.5 -42.5t34.5 -115.5t-34 -114.5t-88 -41.5zM273 193v199h-73v52h41q35 0 35 36v21
h59v-308h-62zM500 248q29 0 44.5 26.5t15.5 71.5t-16 71t-45 26t-45 -26t-16 -71t16 -71.5t46 -26.5z" />
    <glyph glyph-name="fl" unicode="&#xfb02;" horiz-adv-x="561" 
d="M394 710h104v-710h-104v416h-177v-416h-98v416h-91v84h91v71q0 64 36.5 101.5t102.5 37.5q39 0 69 -16l-22 -80q-18 9 -35 9q-53 0 -53 -60v-63h177v210z" />
    <glyph glyph-name="i.loclTRK" horiz-adv-x="235" 
d="M118 571q-28 0 -48.5 20t-20.5 48t20.5 48t48.5 20t47.5 -20t19.5 -48t-19.5 -48t-47.5 -20zM169 500v-500h-103v500h103z" />
    <glyph glyph-name="a.fina" horiz-adv-x="523" 
d="M520 95l33 -66q-8 -13 -28.5 -26t-46.5 -13q-40 0 -65.5 20.5t-31.5 54.5q-64 -75 -171 -75q-76 0 -123.5 37t-47.5 105q0 148 225 166l95 7v12q0 52 -25.5 82.5t-71.5 30.5q-47 0 -72.5 -27t-30.5 -64h-98q7 75 60 123t140 48q88 0 142.5 -52.5t54.5 -147.5v-181
q0 -54 32 -54q15 0 30 20zM222 73q55 0 96 35t41 97v26l-76 -6q-141 -11 -141 -87q0 -32 22.5 -48.5t57.5 -16.5z" />
    <glyph glyph-name="aacute.fina" horiz-adv-x="523" 
d="M401 690l-103 -135h-73l62 135h114zM520 95l33 -66q-8 -13 -28.5 -26t-46.5 -13q-40 0 -65.5 20.5t-31.5 54.5q-64 -75 -171 -75q-76 0 -123.5 37t-47.5 105q0 148 225 166l95 7v12q0 52 -25.5 82.5t-71.5 30.5q-47 0 -72.5 -27t-30.5 -64h-98q7 75 60 123t140 48
q88 0 142.5 -52.5t54.5 -147.5v-181q0 -54 32 -54q15 0 30 20zM222 73q55 0 96 35t41 97v26l-76 -6q-141 -11 -141 -87q0 -32 22.5 -48.5t57.5 -16.5z" />
    <glyph glyph-name="abreve.fina" horiz-adv-x="523" 
d="M263 570q-58 0 -96.5 35.5t-38.5 84.5h77q0 -25 16 -42t43 -17q26 0 41.5 16.5t15.5 42.5h76q0 -49 -38 -84.5t-96 -35.5zM520 95l33 -66q-8 -13 -28.5 -26t-46.5 -13q-40 0 -65.5 20.5t-31.5 54.5q-64 -75 -171 -75q-76 0 -123.5 37t-47.5 105q0 148 225 166l95 7v12
q0 52 -25.5 82.5t-71.5 30.5q-47 0 -72.5 -27t-30.5 -64h-98q7 75 60 123t140 48q88 0 142.5 -52.5t54.5 -147.5v-181q0 -54 32 -54q15 0 30 20zM222 73q55 0 96 35t41 97v26l-76 -6q-141 -11 -141 -87q0 -32 22.5 -48.5t57.5 -16.5z" />
    <glyph glyph-name="uni01CE.fina" horiz-adv-x="523" 
d="M306 556h-85l-114 144h93l58 -80h10l58 80h93zM520 95l33 -66q-8 -13 -28.5 -26t-46.5 -13q-40 0 -65.5 20.5t-31.5 54.5q-64 -75 -171 -75q-76 0 -123.5 37t-47.5 105q0 148 225 166l95 7v12q0 52 -25.5 82.5t-71.5 30.5q-47 0 -72.5 -27t-30.5 -64h-98q7 75 60 123
t140 48q88 0 142.5 -52.5t54.5 -147.5v-181q0 -54 32 -54q15 0 30 20zM222 73q55 0 96 35t41 97v26l-76 -6q-141 -11 -141 -87q0 -32 22.5 -48.5t57.5 -16.5z" />
    <glyph glyph-name="acircumflex.fina" horiz-adv-x="523" 
d="M257 636l-58 -80h-93l113 144h85l114 -144h-93l-58 80h-10zM520 95l33 -66q-8 -13 -28.5 -26t-46.5 -13q-40 0 -65.5 20.5t-31.5 54.5q-64 -75 -171 -75q-76 0 -123.5 37t-47.5 105q0 148 225 166l95 7v12q0 52 -25.5 82.5t-71.5 30.5q-47 0 -72.5 -27t-30.5 -64h-98
q7 75 60 123t140 48q88 0 142.5 -52.5t54.5 -147.5v-181q0 -54 32 -54q15 0 30 20zM222 73q55 0 96 35t41 97v26l-76 -6q-141 -11 -141 -87q0 -32 22.5 -48.5t57.5 -16.5z" />
    <glyph glyph-name="adieresis.fina" horiz-adv-x="523" 
d="M170 553q-25 0 -43 18t-18 43t17.5 42.5t43.5 17.5q25 0 42.5 -17.5t17.5 -42.5t-17.5 -43t-42.5 -18zM357 553q-24 0 -42 18t-18 43t18 42.5t42 17.5q25 0 42.5 -17t17.5 -43q0 -25 -17.5 -43t-42.5 -18zM520 95l33 -66q-8 -13 -28.5 -26t-46.5 -13q-40 0 -65.5 20.5
t-31.5 54.5q-64 -75 -171 -75q-76 0 -123.5 37t-47.5 105q0 148 225 166l95 7v12q0 52 -25.5 82.5t-71.5 30.5q-47 0 -72.5 -27t-30.5 -64h-98q7 75 60 123t140 48q88 0 142.5 -52.5t54.5 -147.5v-181q0 -54 32 -54q15 0 30 20zM222 73q55 0 96 35t41 97v26l-76 -6
q-141 -11 -141 -87q0 -32 22.5 -48.5t57.5 -16.5z" />
    <glyph glyph-name="uni0227.fina" horiz-adv-x="523" 
d="M263 571q-28 0 -48.5 20t-20.5 48t20.5 48t48.5 20t47.5 -20t19.5 -48t-19.5 -48t-47.5 -20zM520 95l33 -66q-8 -13 -28.5 -26t-46.5 -13q-40 0 -65.5 20.5t-31.5 54.5q-64 -75 -171 -75q-76 0 -123.5 37t-47.5 105q0 148 225 166l95 7v12q0 52 -25.5 82.5t-71.5 30.5
q-47 0 -72.5 -27t-30.5 -64h-98q7 75 60 123t140 48q88 0 142.5 -52.5t54.5 -147.5v-181q0 -54 32 -54q15 0 30 20zM222 73q55 0 96 35t41 97v26l-76 -6q-141 -11 -141 -87q0 -32 22.5 -48.5t57.5 -16.5z" />
    <glyph glyph-name="uni1EA1.fina" horiz-adv-x="523" 
d="M520 95l33 -66q-8 -13 -28.5 -26t-46.5 -13q-40 0 -65.5 20.5t-31.5 54.5q-64 -75 -171 -75q-76 0 -123.5 37t-47.5 105q0 148 225 166l95 7v12q0 52 -25.5 82.5t-71.5 30.5q-47 0 -72.5 -27t-30.5 -64h-98q7 75 60 123t140 48q88 0 142.5 -52.5t54.5 -147.5v-181
q0 -54 32 -54q15 0 30 20zM222 73q55 0 96 35t41 97v26l-76 -6q-141 -11 -141 -87q0 -32 22.5 -48.5t57.5 -16.5zM272 -71q28 0 47.5 -20t19.5 -48t-19.5 -48t-47.5 -20t-48.5 20t-20.5 48t20.5 48t48.5 20z" />
    <glyph glyph-name="agrave.fina" horiz-adv-x="523" 
d="M301 555h-73l-103 135h114zM520 95l33 -66q-8 -13 -28.5 -26t-46.5 -13q-40 0 -65.5 20.5t-31.5 54.5q-64 -75 -171 -75q-76 0 -123.5 37t-47.5 105q0 148 225 166l95 7v12q0 52 -25.5 82.5t-71.5 30.5q-47 0 -72.5 -27t-30.5 -64h-98q7 75 60 123t140 48
q88 0 142.5 -52.5t54.5 -147.5v-181q0 -54 32 -54q15 0 30 20zM222 73q55 0 96 35t41 97v26l-76 -6q-141 -11 -141 -87q0 -32 22.5 -48.5t57.5 -16.5z" />
    <glyph glyph-name="amacron.fina" horiz-adv-x="523" 
d="M419 649v-72h-311v72h311zM520 95l33 -66q-8 -13 -28.5 -26t-46.5 -13q-40 0 -65.5 20.5t-31.5 54.5q-64 -75 -171 -75q-76 0 -123.5 37t-47.5 105q0 148 225 166l95 7v12q0 52 -25.5 82.5t-71.5 30.5q-47 0 -72.5 -27t-30.5 -64h-98q7 75 60 123t140 48
q88 0 142.5 -52.5t54.5 -147.5v-181q0 -54 32 -54q15 0 30 20zM222 73q55 0 96 35t41 97v26l-76 -6q-141 -11 -141 -87q0 -32 22.5 -48.5t57.5 -16.5z" />
    <glyph glyph-name="aogonek.fina" horiz-adv-x="531" 
d="M452 -71q0 -38 39 -47t67 10v-61q-17 -13 -58 -13q-47 0 -79.5 26t-32.5 72q0 50 51 80q-48 15 -58 68q-64 -74 -171 -74q-76 0 -123.5 37t-47.5 105q0 148 225 166l95 7v12q0 52 -25.5 82.5t-71.5 30.5q-47 0 -72.5 -27t-30.5 -64h-98q7 75 60 123t140 48
q88 0 142.5 -52.5t54.5 -147.5v-181q0 -54 31 -54q15 0 30 20l34 -66q-11 -19 -53 -36q-48 -20 -48 -64zM222 73q55 0 96 35t41 97v26l-76 -6q-141 -11 -141 -87q0 -32 22.5 -48.5t57.5 -16.5z" />
    <glyph glyph-name="aring.fina" horiz-adv-x="523" 
d="M262 538q-40 0 -68.5 28.5t-28.5 67.5q0 40 28.5 68.5t68.5 28.5t69 -28.5t29 -68.5q0 -39 -29 -67.5t-69 -28.5zM263 673q-16 0 -27 -11.5t-11 -27.5q0 -15 11 -26.5t27 -11.5q15 0 26 11.5t11 26.5q0 16 -11 27.5t-26 11.5zM520 95l33 -66q-8 -13 -28.5 -26t-46.5 -13
q-40 0 -65.5 20.5t-31.5 54.5q-64 -75 -171 -75q-76 0 -123.5 37t-47.5 105q0 148 225 166l95 7v12q0 52 -25.5 82.5t-71.5 30.5q-47 0 -72.5 -27t-30.5 -64h-98q7 75 60 123t140 48q88 0 142.5 -52.5t54.5 -147.5v-181q0 -54 32 -54q15 0 30 20zM222 73q55 0 96 35t41 97
v26l-76 -6q-141 -11 -141 -87q0 -32 22.5 -48.5t57.5 -16.5z" />
    <glyph glyph-name="atilde.fina" horiz-adv-x="523" 
d="M198 602q-33 0 -54 -44l-57 29q10 33 37.5 61t70.5 28q36 0 74 -24t57 -24q35 0 55 43l57 -29q-9 -32 -36.5 -60t-71.5 -28q-36 0 -74 24t-58 24zM520 95l33 -66q-8 -13 -28.5 -26t-46.5 -13q-40 0 -65.5 20.5t-31.5 54.5q-64 -75 -171 -75q-76 0 -123.5 37t-47.5 105
q0 148 225 166l95 7v12q0 52 -25.5 82.5t-71.5 30.5q-47 0 -72.5 -27t-30.5 -64h-98q7 75 60 123t140 48q88 0 142.5 -52.5t54.5 -147.5v-181q0 -54 32 -54q15 0 30 20zM222 73q55 0 96 35t41 97v26l-76 -6q-141 -11 -141 -87q0 -32 22.5 -48.5t57.5 -16.5z" />
    <glyph glyph-name="a.ss02" horiz-adv-x="587" 
d="M422 500h101v-500h-77l-15 66h-11q-55 -76 -153 -76t-163 72.5t-65 187.5q0 116 67 188t166 72q107 0 150 -77v67zM141 250q0 -73 40 -120t102 -47t100.5 46.5t38.5 120.5t-38.5 120.5t-100.5 46.5q-63 0 -102.5 -46.5t-39.5 -120.5z" />
    <glyph glyph-name="aacute.ss02" horiz-adv-x="587" 
d="M309 690h114l-103 -135h-73zM422 500h101v-500h-77l-15 66h-11q-55 -76 -153 -76t-163 72.5t-65 187.5q0 116 67 188t166 72q107 0 150 -77v67zM141 250q0 -73 40 -120t102 -47t100.5 46.5t38.5 120.5t-38.5 120.5t-100.5 46.5q-63 0 -102.5 -46.5t-39.5 -120.5z" />
    <glyph glyph-name="abreve.ss02" horiz-adv-x="587" 
d="M419 690q0 -49 -38 -84.5t-96 -35.5t-96.5 35.5t-38.5 84.5h77q0 -25 16 -42t43 -17q26 0 41.5 16.5t15.5 42.5h76zM422 500h101v-500h-77l-15 66h-11q-55 -76 -153 -76t-163 72.5t-65 187.5q0 116 67 188t166 72q107 0 150 -77v67zM141 250q0 -73 40 -120t102 -47
t100.5 46.5t38.5 120.5t-38.5 120.5t-100.5 46.5q-63 0 -102.5 -46.5t-39.5 -120.5z" />
    <glyph glyph-name="uni01CE.ss02" horiz-adv-x="587" 
d="M348 700h93l-113 -144h-85l-114 144h93l58 -80h10zM422 500h101v-500h-77l-15 66h-11q-55 -76 -153 -76t-163 72.5t-65 187.5q0 116 67 188t166 72q107 0 150 -77v67zM141 250q0 -73 40 -120t102 -47t100.5 46.5t38.5 120.5t-38.5 120.5t-100.5 46.5q-63 0 -102.5 -46.5
t-39.5 -120.5z" />
    <glyph glyph-name="acircumflex.ss02" horiz-adv-x="587" 
d="M221 556h-93l113 144h85l114 -144h-93l-58 80h-10zM422 500h101v-500h-77l-15 66h-11q-55 -76 -153 -76t-163 72.5t-65 187.5q0 116 67 188t166 72q107 0 150 -77v67zM141 250q0 -73 40 -120t102 -47t100.5 46.5t38.5 120.5t-38.5 120.5t-100.5 46.5q-63 0 -102.5 -46.5
t-39.5 -120.5z" />
    <glyph glyph-name="adieresis.ss02" horiz-adv-x="587" 
d="M192 553q-25 0 -43 18t-18 43t17.5 42.5t43.5 17.5q25 0 42.5 -17.5t17.5 -42.5t-17.5 -43t-42.5 -18zM379 553q-24 0 -42 18t-18 43t18 42.5t42 17.5q25 0 42.5 -17t17.5 -43q0 -25 -17.5 -43t-42.5 -18zM422 500h101v-500h-77l-15 66h-11q-55 -76 -153 -76t-163 72.5
t-65 187.5q0 116 67 188t166 72q107 0 150 -77v67zM141 250q0 -73 40 -120t102 -47t100.5 46.5t38.5 120.5t-38.5 120.5t-100.5 46.5q-63 0 -102.5 -46.5t-39.5 -120.5z" />
    <glyph glyph-name="uni0227.ss02" horiz-adv-x="587" 
d="M285 571q-28 0 -48.5 20t-20.5 48t20.5 48t48.5 20t47.5 -20t19.5 -48t-19.5 -48t-47.5 -20zM422 500h101v-500h-77l-15 66h-11q-55 -76 -153 -76t-163 72.5t-65 187.5q0 116 67 188t166 72q107 0 150 -77v67zM141 250q0 -73 40 -120t102 -47t100.5 46.5t38.5 120.5
t-38.5 120.5t-100.5 46.5q-63 0 -102.5 -46.5t-39.5 -120.5z" />
    <glyph glyph-name="uni1EA1.ss02" horiz-adv-x="587" 
d="M422 500h101v-500h-77l-15 66h-11q-55 -76 -153 -76t-163 72.5t-65 187.5q0 116 67 188t166 72q107 0 150 -77v67zM141 250q0 -73 40 -120t102 -47t100.5 46.5t38.5 120.5t-38.5 120.5t-100.5 46.5q-63 0 -102.5 -46.5t-39.5 -120.5zM284 -207q-28 0 -48.5 20t-20.5 48
t20.5 48t48.5 20t47.5 -20t19.5 -48t-19.5 -48t-47.5 -20z" />
    <glyph glyph-name="agrave.ss02" horiz-adv-x="587" 
d="M261 690l62 -135h-73l-103 135h114zM422 500h101v-500h-77l-15 66h-11q-55 -76 -153 -76t-163 72.5t-65 187.5q0 116 67 188t166 72q107 0 150 -77v67zM141 250q0 -73 40 -120t102 -47t100.5 46.5t38.5 120.5t-38.5 120.5t-100.5 46.5q-63 0 -102.5 -46.5t-39.5 -120.5z
" />
    <glyph glyph-name="amacron.ss02" horiz-adv-x="587" 
d="M130 649h311v-72h-311v72zM422 500h101v-500h-77l-15 66h-11q-55 -76 -153 -76t-163 72.5t-65 187.5q0 116 67 188t166 72q107 0 150 -77v67zM141 250q0 -73 40 -120t102 -47t100.5 46.5t38.5 120.5t-38.5 120.5t-100.5 46.5q-63 0 -102.5 -46.5t-39.5 -120.5z" />
    <glyph glyph-name="aogonek.ss02" horiz-adv-x="587" 
d="M454 -71q0 -38 39 -47t68 10v-61q-17 -13 -58 -13q-47 0 -79.5 26t-32.5 72q0 52 56 84h-1l-15 66h-11q-55 -76 -153 -76t-163 72.5t-65 187.5q0 116 67 188t166 72q107 0 150 -77v67h101v-500q-29 -8 -49 -28.5t-20 -42.5zM283 83q62 0 100.5 46.5t38.5 120.5
t-38.5 120.5t-100.5 46.5q-63 0 -102.5 -46.5t-39.5 -120.5q0 -73 40 -120t102 -47z" />
    <glyph glyph-name="aring.ss02" horiz-adv-x="587" 
d="M284 538q-40 0 -68.5 28.5t-28.5 67.5q0 40 28.5 68.5t68.5 28.5t69 -28.5t29 -68.5q0 -39 -29 -67.5t-69 -28.5zM285 596q15 0 26 11.5t11 26.5q0 16 -11 27.5t-26 11.5q-16 0 -27 -11.5t-11 -27.5q0 -15 11 -26.5t27 -11.5zM422 500h101v-500h-77l-15 66h-11
q-55 -76 -153 -76t-163 72.5t-65 187.5q0 116 67 188t166 72q107 0 150 -77v67zM141 250q0 -73 40 -120t102 -47t100.5 46.5t38.5 120.5t-38.5 120.5t-100.5 46.5q-63 0 -102.5 -46.5t-39.5 -120.5z" />
    <glyph glyph-name="atilde.ss02" horiz-adv-x="587" 
d="M460 642q-9 -32 -36.5 -60t-71.5 -28q-36 0 -74 24t-58 24q-33 0 -54 -44l-57 29q10 33 37.5 61t70.5 28q36 0 74 -24t57 -24q35 0 55 43zM422 500h101v-500h-77l-15 66h-11q-55 -76 -153 -76t-163 72.5t-65 187.5q0 116 67 188t166 72q107 0 150 -77v67zM141 250
q0 -73 40 -120t102 -47t100.5 46.5t38.5 120.5t-38.5 120.5t-100.5 46.5q-63 0 -102.5 -46.5t-39.5 -120.5z" />
    <glyph glyph-name="a.fina.ss02" horiz-adv-x="599" 
d="M587 101l41 -58q-9 -22 -32 -37.5t-55 -15.5q-46 0 -72.5 23t-31.5 65h-7q-61 -88 -163 -88q-98 0 -163 72t-65 187q0 117 66.5 189t166.5 72q105 0 150 -72v62h101v-371q0 -54 34 -54q21 0 30 26zM283 83q62 0 100.5 46.5t38.5 120.5t-38.5 120.5t-100.5 46.5
q-63 0 -103 -46.5t-40 -120.5q0 -73 40.5 -120t102.5 -47z" />
    <glyph glyph-name="aacute.fina.ss02" horiz-adv-x="599" 
d="M423 690l-103 -135h-73l62 135h114zM587 101l41 -58q-9 -22 -32 -37.5t-55 -15.5q-46 0 -72.5 23t-31.5 65h-7q-61 -88 -163 -88q-98 0 -163 72t-65 187q0 117 66.5 189t166.5 72q105 0 150 -72v62h101v-371q0 -54 34 -54q21 0 30 26zM283 83q62 0 100.5 46.5t38.5 120.5
t-38.5 120.5t-100.5 46.5q-63 0 -103 -46.5t-40 -120.5q0 -73 40.5 -120t102.5 -47z" />
    <glyph glyph-name="abreve.fina.ss02" horiz-adv-x="599" 
d="M285 570q-58 0 -96.5 35.5t-38.5 84.5h77q0 -25 16 -42t43 -17q26 0 41.5 16.5t15.5 42.5h76q0 -49 -38 -84.5t-96 -35.5zM587 101l41 -58q-9 -22 -32 -37.5t-55 -15.5q-46 0 -72.5 23t-31.5 65h-7q-61 -88 -163 -88q-98 0 -163 72t-65 187q0 117 66.5 189t166.5 72
q105 0 150 -72v62h101v-371q0 -54 34 -54q21 0 30 26zM283 83q62 0 100.5 46.5t38.5 120.5t-38.5 120.5t-100.5 46.5q-63 0 -103 -46.5t-40 -120.5q0 -73 40.5 -120t102.5 -47z" />
    <glyph glyph-name="uni01CE.fina.ss02" horiz-adv-x="599" 
d="M328 556h-85l-114 144h93l58 -80h10l58 80h93zM587 101l41 -58q-9 -22 -32 -37.5t-55 -15.5q-46 0 -72.5 23t-31.5 65h-7q-61 -88 -163 -88q-98 0 -163 72t-65 187q0 117 66.5 189t166.5 72q105 0 150 -72v62h101v-371q0 -54 34 -54q21 0 30 26zM283 83q62 0 100.5 46.5
t38.5 120.5t-38.5 120.5t-100.5 46.5q-63 0 -103 -46.5t-40 -120.5q0 -73 40.5 -120t102.5 -47z" />
    <glyph glyph-name="acircumflex.fina.ss02" horiz-adv-x="599" 
d="M279 636l-58 -80h-93l113 144h85l114 -144h-93l-58 80h-10zM587 101l41 -58q-9 -22 -32 -37.5t-55 -15.5q-46 0 -72.5 23t-31.5 65h-7q-61 -88 -163 -88q-98 0 -163 72t-65 187q0 117 66.5 189t166.5 72q105 0 150 -72v62h101v-371q0 -54 34 -54q21 0 30 26zM283 83
q62 0 100.5 46.5t38.5 120.5t-38.5 120.5t-100.5 46.5q-63 0 -103 -46.5t-40 -120.5q0 -73 40.5 -120t102.5 -47z" />
    <glyph glyph-name="adieresis.fina.ss02" horiz-adv-x="599" 
d="M192 553q-25 0 -43 18t-18 43t17.5 42.5t43.5 17.5q25 0 42.5 -17.5t17.5 -42.5t-17.5 -43t-42.5 -18zM379 553q-24 0 -42 18t-18 43t18 42.5t42 17.5q25 0 42.5 -17t17.5 -43q0 -25 -17.5 -43t-42.5 -18zM587 101l41 -58q-9 -22 -32 -37.5t-55 -15.5q-46 0 -72.5 23
t-31.5 65h-7q-61 -88 -163 -88q-98 0 -163 72t-65 187q0 117 66.5 189t166.5 72q105 0 150 -72v62h101v-371q0 -54 34 -54q21 0 30 26zM283 83q62 0 100.5 46.5t38.5 120.5t-38.5 120.5t-100.5 46.5q-63 0 -103 -46.5t-40 -120.5q0 -73 40.5 -120t102.5 -47z" />
    <glyph glyph-name="uni0227.fina.ss02" horiz-adv-x="599" 
d="M285 571q-28 0 -48.5 20t-20.5 48t20.5 48t48.5 20t47.5 -20t19.5 -48t-19.5 -48t-47.5 -20zM587 101l41 -58q-9 -22 -32 -37.5t-55 -15.5q-46 0 -72.5 23t-31.5 65h-7q-61 -88 -163 -88q-98 0 -163 72t-65 187q0 117 66.5 189t166.5 72q105 0 150 -72v62h101v-371
q0 -54 34 -54q21 0 30 26zM283 83q62 0 100.5 46.5t38.5 120.5t-38.5 120.5t-100.5 46.5q-63 0 -103 -46.5t-40 -120.5q0 -73 40.5 -120t102.5 -47z" />
    <glyph glyph-name="uni1EA1.fina.ss02" horiz-adv-x="599" 
d="M587 101l41 -58q-9 -22 -32 -37.5t-55 -15.5q-46 0 -72.5 23t-31.5 65h-7q-61 -88 -163 -88q-98 0 -163 72t-65 187q0 117 66.5 189t166.5 72q105 0 150 -72v62h101v-371q0 -54 34 -54q21 0 30 26zM283 83q62 0 100.5 46.5t38.5 120.5t-38.5 120.5t-100.5 46.5
q-63 0 -103 -46.5t-40 -120.5q0 -73 40.5 -120t102.5 -47zM331 -71q28 0 47.5 -20t19.5 -48t-19.5 -48t-47.5 -20t-48.5 20t-20.5 48t20.5 48t48.5 20z" />
    <glyph glyph-name="agrave.fina.ss02" horiz-adv-x="599" 
d="M323 555h-73l-103 135h114zM587 101l41 -58q-9 -22 -32 -37.5t-55 -15.5q-46 0 -72.5 23t-31.5 65h-7q-61 -88 -163 -88q-98 0 -163 72t-65 187q0 117 66.5 189t166.5 72q105 0 150 -72v62h101v-371q0 -54 34 -54q21 0 30 26zM283 83q62 0 100.5 46.5t38.5 120.5
t-38.5 120.5t-100.5 46.5q-63 0 -103 -46.5t-40 -120.5q0 -73 40.5 -120t102.5 -47z" />
    <glyph glyph-name="amacron.fina.ss02" horiz-adv-x="599" 
d="M441 649v-72h-311v72h311zM587 101l41 -58q-9 -22 -32 -37.5t-55 -15.5q-46 0 -72.5 23t-31.5 65h-7q-61 -88 -163 -88q-98 0 -163 72t-65 187q0 117 66.5 189t166.5 72q105 0 150 -72v62h101v-371q0 -54 34 -54q21 0 30 26zM283 83q62 0 100.5 46.5t38.5 120.5
t-38.5 120.5t-100.5 46.5q-63 0 -103 -46.5t-40 -120.5q0 -73 40.5 -120t102.5 -47z" />
    <glyph glyph-name="aogonek.fina.ss02" horiz-adv-x="607" 
d="M520 -71q0 -38 39 -47t68 10v-61q-17 -13 -59 -13q-47 0 -79.5 26t-32.5 72q0 48 49 78q-59 16 -66 84h-9q-61 -88 -163 -88q-98 0 -163 72t-65 187q0 117 66.5 189t166.5 72q105 0 150 -72v62h101v-371q0 -54 34 -54q20 0 31 26l40 -58q-10 -27 -59 -50q-49 -22 -49 -64
zM283 83q62 0 100.5 46.5t38.5 120.5t-38.5 120.5t-100.5 46.5q-63 0 -103 -46.5t-40 -120.5q0 -73 40.5 -120t102.5 -47z" />
    <glyph glyph-name="aring.fina.ss02" horiz-adv-x="599" 
d="M284 538q-40 0 -68.5 28.5t-28.5 67.5q0 40 28.5 68.5t68.5 28.5t69 -28.5t29 -68.5q0 -39 -29 -67.5t-69 -28.5zM285 673q-16 0 -27 -11.5t-11 -27.5q0 -15 11 -26.5t27 -11.5q15 0 26 11.5t11 26.5q0 16 -11 27.5t-26 11.5zM587 101l41 -58q-9 -22 -32 -37.5t-55 -15.5
q-46 0 -72.5 23t-31.5 65h-7q-61 -88 -163 -88q-98 0 -163 72t-65 187q0 117 66.5 189t166.5 72q105 0 150 -72v62h101v-371q0 -54 34 -54q21 0 30 26zM283 83q62 0 100.5 46.5t38.5 120.5t-38.5 120.5t-100.5 46.5q-63 0 -103 -46.5t-40 -120.5q0 -73 40.5 -120t102.5 -47z
" />
    <glyph glyph-name="atilde.fina.ss02" horiz-adv-x="599" 
d="M220 602q-33 0 -54 -44l-57 29q10 33 37.5 61t70.5 28q36 0 74 -24t57 -24q35 0 55 43l57 -29q-9 -32 -36.5 -60t-71.5 -28q-36 0 -74 24t-58 24zM587 101l41 -58q-9 -22 -32 -37.5t-55 -15.5q-46 0 -72.5 23t-31.5 65h-7q-61 -88 -163 -88q-98 0 -163 72t-65 187
q0 117 66.5 189t166.5 72q105 0 150 -72v62h101v-371q0 -54 34 -54q21 0 30 26zM283 83q62 0 100.5 46.5t38.5 120.5t-38.5 120.5t-100.5 46.5q-63 0 -103 -46.5t-40 -120.5q0 -73 40.5 -120t102.5 -47z" />
    <glyph glyph-name="g.ss02" horiz-adv-x="587" 
d="M446 500h77v-480q0 -115 -69 -173t-169 -58q-103 0 -165 47.5t-70 130.5h103q6 -40 41 -64.5t91 -24.5q54 0 95 34.5t41 104.5v42q-44 -70 -149 -70q-100 0 -166.5 72t-66.5 189q0 115 65 187t163 72t153 -75h11zM283 82q62 0 100.5 46.5t38.5 120.5t-38.5 120.5
t-100.5 46.5t-102.5 -47t-40.5 -120q0 -74 40 -120.5t103 -46.5z" />
    <glyph glyph-name="uni01F5.ss02" horiz-adv-x="587" 
d="M423 690l-103 -135h-73l62 135h114zM446 500h77v-480q0 -115 -69 -173t-169 -58q-103 0 -165 47.5t-70 130.5h103q6 -40 41 -64.5t91 -24.5q54 0 95 34.5t41 104.5v42q-44 -70 -149 -70q-100 0 -166.5 72t-66.5 189q0 115 65 187t163 72t153 -75h11zM283 82
q62 0 100.5 46.5t38.5 120.5t-38.5 120.5t-100.5 46.5t-102.5 -47t-40.5 -120q0 -74 40 -120.5t103 -46.5z" />
    <glyph glyph-name="gbreve.ss02" horiz-adv-x="587" 
d="M285 570q-58 0 -96.5 35.5t-38.5 84.5h77q0 -25 16 -42t43 -17q26 0 41.5 16.5t15.5 42.5h76q0 -49 -38 -84.5t-96 -35.5zM446 500h77v-480q0 -115 -69 -173t-169 -58q-103 0 -165 47.5t-70 130.5h103q6 -40 41 -64.5t91 -24.5q54 0 95 34.5t41 104.5v42
q-44 -70 -149 -70q-100 0 -166.5 72t-66.5 189q0 115 65 187t163 72t153 -75h11zM283 82q62 0 100.5 46.5t38.5 120.5t-38.5 120.5t-100.5 46.5t-102.5 -47t-40.5 -120q0 -74 40 -120.5t103 -46.5z" />
    <glyph glyph-name="gcaron.ss02" horiz-adv-x="587" 
d="M328 556h-85l-114 144h93l58 -80h10l58 80h93zM446 500h77v-480q0 -115 -69 -173t-169 -58q-103 0 -165 47.5t-70 130.5h103q6 -40 41 -64.5t91 -24.5q54 0 95 34.5t41 104.5v42q-44 -70 -149 -70q-100 0 -166.5 72t-66.5 189q0 115 65 187t163 72t153 -75h11zM283 82
q62 0 100.5 46.5t38.5 120.5t-38.5 120.5t-100.5 46.5t-102.5 -47t-40.5 -120q0 -74 40 -120.5t103 -46.5z" />
    <glyph glyph-name="gcircumflex.ss02" horiz-adv-x="587" 
d="M279 636l-58 -80h-93l113 144h85l114 -144h-93l-58 80h-10zM446 500h77v-480q0 -115 -69 -173t-169 -58q-103 0 -165 47.5t-70 130.5h103q6 -40 41 -64.5t91 -24.5q54 0 95 34.5t41 104.5v42q-44 -70 -149 -70q-100 0 -166.5 72t-66.5 189q0 115 65 187t163 72t153 -75
h11zM283 82q62 0 100.5 46.5t38.5 120.5t-38.5 120.5t-100.5 46.5t-102.5 -47t-40.5 -120q0 -74 40 -120.5t103 -46.5z" />
    <glyph glyph-name="gcommaaccent.ss02" horiz-adv-x="587" 
d="M286 556q-33 0 -51.5 25t-18.5 64q0 58 32 101.5t75 65.5l24 -30q-60 -47 -61 -95q26 4 46 -14t20 -50q0 -30 -18.5 -48.5t-47.5 -18.5zM446 500h77v-480q0 -115 -69 -173t-169 -58q-103 0 -165 47.5t-70 130.5h103q6 -40 41 -64.5t91 -24.5q54 0 95 34.5t41 104.5v42
q-44 -70 -149 -70q-100 0 -166.5 72t-66.5 189q0 115 65 187t163 72t153 -75h11zM283 82q62 0 100.5 46.5t38.5 120.5t-38.5 120.5t-100.5 46.5t-102.5 -47t-40.5 -120q0 -74 40 -120.5t103 -46.5z" />
    <glyph glyph-name="gdotaccent.ss02" horiz-adv-x="587" 
d="M285 571q-28 0 -48.5 20t-20.5 48t20.5 48t48.5 20t47.5 -20t19.5 -48t-19.5 -48t-47.5 -20zM446 500h77v-480q0 -115 -69 -173t-169 -58q-103 0 -165 47.5t-70 130.5h103q6 -40 41 -64.5t91 -24.5q54 0 95 34.5t41 104.5v42q-44 -70 -149 -70q-100 0 -166.5 72
t-66.5 189q0 115 65 187t163 72t153 -75h11zM283 82q62 0 100.5 46.5t38.5 120.5t-38.5 120.5t-100.5 46.5t-102.5 -47t-40.5 -120q0 -74 40 -120.5t103 -46.5z" />
    <glyph glyph-name="y.ss02" horiz-adv-x="582" 
d="M411 500h107v-492q0 -110 -61 -164t-167 -54q-97 0 -158 48t-68 123h102q22 -82 126 -82q56 0 91 30t35 98v55h-5q-53 -72 -156 -72q-84 0 -136.5 56.5t-52.5 160.5v293h107v-275q0 -69 32.5 -104.5t85.5 -35.5q49 0 83.5 34t34.5 102v279z" />
    <glyph glyph-name="yacute.ss02" horiz-adv-x="582" 
d="M316 690h114l-103 -135h-73zM411 500h107v-492q0 -110 -61 -164t-167 -54q-97 0 -158 48t-68 123h102q22 -82 126 -82q56 0 91 30t35 98v55h-5q-53 -72 -156 -72q-84 0 -136.5 56.5t-52.5 160.5v293h107v-275q0 -69 32.5 -104.5t85.5 -35.5q49 0 83.5 34t34.5 102v279z
" />
    <glyph glyph-name="ycircumflex.ss02" horiz-adv-x="582" 
d="M228 556h-93l113 144h85l114 -144h-93l-58 80h-10zM411 500h107v-492q0 -110 -61 -164t-167 -54q-97 0 -158 48t-68 123h102q22 -82 126 -82q56 0 91 30t35 98v55h-5q-53 -72 -156 -72q-84 0 -136.5 56.5t-52.5 160.5v293h107v-275q0 -69 32.5 -104.5t85.5 -35.5
q49 0 83.5 34t34.5 102v279z" />
    <glyph glyph-name="ydieresis.ss02" horiz-adv-x="582" 
d="M199 553q-25 0 -43 18t-18 43t17.5 42.5t43.5 17.5q25 0 42.5 -17.5t17.5 -42.5t-17.5 -43t-42.5 -18zM386 553q-24 0 -42 18t-18 43t18 42.5t42 17.5q26 0 43 -17t17 -43q0 -25 -17.5 -43t-42.5 -18zM411 500h107v-492q0 -110 -61 -164t-167 -54q-97 0 -158 48t-68 123
h102q22 -82 126 -82q56 0 91 30t35 98v55h-5q-53 -72 -156 -72q-84 0 -136.5 56.5t-52.5 160.5v293h107v-275q0 -69 32.5 -104.5t85.5 -35.5q49 0 83.5 34t34.5 102v279z" />
    <glyph glyph-name="ygrave.ss02" horiz-adv-x="582" 
d="M268 690l62 -135h-73l-103 135h114zM411 500h107v-492q0 -110 -61 -164t-167 -54q-97 0 -158 48t-68 123h102q22 -82 126 -82q56 0 91 30t35 98v55h-5q-53 -72 -156 -72q-84 0 -136.5 56.5t-52.5 160.5v293h107v-275q0 -69 32.5 -104.5t85.5 -35.5q49 0 83.5 34t34.5 102
v279z" />
    <glyph glyph-name="uni0233.ss02" horiz-adv-x="582" 
d="M137 649h311v-72h-311v72zM411 500h107v-492q0 -110 -61 -164t-167 -54q-97 0 -158 48t-68 123h102q22 -82 126 -82q56 0 91 30t35 98v55h-5q-53 -72 -156 -72q-84 0 -136.5 56.5t-52.5 160.5v293h107v-275q0 -69 32.5 -104.5t85.5 -35.5q49 0 83.5 34t34.5 102v279z" />
    <glyph glyph-name="uni1E99.ss02" horiz-adv-x="582" 
d="M291 538q-40 0 -68.5 28.5t-28.5 67.5q0 40 28.5 68.5t68.5 28.5t69 -28.5t29 -68.5q0 -39 -29 -67.5t-69 -28.5zM292 596q15 0 26 11.5t11 26.5q0 16 -11 27.5t-26 11.5q-16 0 -27 -11.5t-11 -27.5q0 -15 11 -26.5t27 -11.5zM411 500h107v-492q0 -110 -61 -164t-167 -54
q-97 0 -158 48t-68 123h102q22 -82 126 -82q56 0 91 30t35 98v55h-5q-53 -72 -156 -72q-84 0 -136.5 56.5t-52.5 160.5v293h107v-275q0 -69 32.5 -104.5t85.5 -35.5q49 0 83.5 34t34.5 102v279z" />
    <glyph glyph-name="uni1EF9.ss02" horiz-adv-x="582" 
d="M467 642q-9 -32 -36.5 -60t-71.5 -28q-36 0 -74 24t-58 24q-33 0 -54 -44l-57 29q10 33 37.5 61t70.5 28q36 0 74 -24t57 -24q35 0 55 43zM411 500h107v-492q0 -110 -61 -164t-167 -54q-97 0 -158 48t-68 123h102q22 -82 126 -82q56 0 91 30t35 98v55h-5
q-53 -72 -156 -72q-84 0 -136.5 56.5t-52.5 160.5v293h107v-275q0 -69 32.5 -104.5t85.5 -35.5q49 0 83.5 34t34.5 102v279z" />
    <glyph glyph-name="f_f_l" horiz-adv-x="850" 
d="M683 710h104v-710h-104v416h-177v-416h-98v416h-186v-416h-102v416h-92v84h92v61q0 69 39.5 109t101.5 40q72 0 108 -36l-33 -79q-26 24 -58 24q-56 0 -56 -68v-51h186v71q0 64 36.5 101.5t102.5 37.5q39 0 69 -16l-22 -80q-18 9 -35 9q-53 0 -53 -60v-63h177v210z" />
    <glyph glyph-name="f_t" horiz-adv-x="691" 
d="M663 416h-121v-273q0 -62 49 -62q23 0 44 14l25 -81q-40 -24 -88 -24q-133 0 -133 143v283h-217v-416h-102v416h-92v84h92v61q0 69 39.5 109t101.5 40q72 0 108 -36l-33 -79q-26 24 -58 24q-56 0 -56 -68v-51h148q78 0 78 71v55h94v-126h121v-84z" />
    <glyph glyph-name="t_t" horiz-adv-x="679" 
d="M651 416h-121v-273q0 -62 49 -62q23 0 44 14l25 -81q-40 -24 -88 -24q-133 0 -133 143v283h-198v-273q0 -62 49 -62q23 0 44 14l25 -81q-40 -24 -88 -24q-133 0 -133 143v283h-98v76h30q78 0 78 70v64h93v-126h129q78 0 78 71v55h94v-126h121v-84z" />
    <glyph glyph-name="uni2780.ss01" 
d="M411 -10q-149 0 -254.5 105.5t-105.5 254.5t105.5 254.5t254.5 105.5t255 -105.5t106 -254.5t-106 -254.5t-255 -105.5zM411 29q133 0 226.5 94t93.5 227t-93.5 227t-226.5 94t-226 -94t-93 -227t93 -227t226 -94zM389 155v253h-91v61h51q43 0 43 45v26h69v-385h-72z" />
    <glyph glyph-name="uni2781.ss01" 
d="M411 -10q-149 0 -254.5 105.5t-105.5 254.5t105.5 254.5t254.5 105.5t255 -105.5t106 -254.5t-106 -254.5t-255 -105.5zM411 29q133 0 226.5 94t93.5 227t-93.5 227t-226.5 94t-226 -94t-93 -227t93 -227t226 -94zM446 326q-90 -50 -92 -96h190v-61h-268v25
q0 103 101 162q9 5 23.5 13t21.5 12.5t17 11t15 11t10.5 11t7.5 13.5t2 15q0 23 -15.5 38t-42.5 15q-32 0 -49 -20.5t-19 -48.5h-71q0 51 36.5 91.5t106.5 40.5q53 0 89.5 -30.5t36.5 -79.5q0 -31 -17 -56.5t-35 -38t-48 -28.5z" />
    <glyph glyph-name="uni2782.ss01" 
d="M411 -10q-149 0 -254.5 105.5t-105.5 254.5t105.5 254.5t254.5 105.5t255 -105.5t106 -254.5t-106 -254.5t-255 -105.5zM411 29q133 0 226.5 94t93.5 227t-93.5 227t-226.5 94t-226 -94t-93 -227t93 -227t226 -94zM482 361q32 -9 52 -35t20 -59q0 -51 -38 -83t-108 -32
q-68 0 -103.5 35t-39.5 91h68q2 -28 22 -47.5t55 -19.5q34 0 54.5 16.5t20.5 42.5q0 29 -22.5 45.5t-61.5 16.5h-18v57h21q31 0 49 14t18 36t-16.5 36t-42.5 14t-43 -14t-20 -37h-68q0 48 38 79t94 31q55 0 91 -28.5t36 -70.5q0 -53 -58 -83v-5z" />
    <glyph glyph-name="uni2783.ss01" 
d="M411 -10q-149 0 -254.5 105.5t-105.5 254.5t105.5 254.5t254.5 105.5t255 -105.5t106 -254.5t-106 -254.5t-255 -105.5zM411 29q133 0 226.5 94t93.5 227t-93.5 227t-226.5 94t-226 -94t-93 -227t93 -227t226 -94zM555 296v-58h-65v-81h-63v81h-190v38l160 266h93v-246
h65zM315 296h112v171h-6z" />
    <glyph glyph-name="uni2784.ss01" 
d="M411 -10q-149 0 -254.5 105.5t-105.5 254.5t105.5 254.5t254.5 105.5t255 -105.5t106 -254.5t-106 -254.5t-255 -105.5zM411 29q133 0 226.5 94t93.5 227t-93.5 227t-226.5 94t-226 -94t-93 -227t93 -227t226 -94zM422 410q61 0 97.5 -37.5t36.5 -94.5q0 -58 -40 -93
t-104 -35q-68 0 -105 36.5t-37 86.5h67q2 -30 23 -48t53 -18q33 0 54.5 20.5t21.5 51.5q0 33 -20.5 55.5t-56.5 22.5q-45 0 -71 -39l-63 17l21 205h237v-60h-180l-11 -93q29 23 77 23z" />
    <glyph glyph-name="uni2785.ss01" 
d="M411 -10q-149 0 -254.5 105.5t-105.5 254.5t105.5 254.5t254.5 105.5t255 -105.5t106 -254.5t-106 -254.5t-255 -105.5zM411 29q133 0 226.5 94t93.5 227t-93.5 227t-226.5 94t-226 -94t-93 -227t93 -227t226 -94zM424 411q58 0 93.5 -35t35.5 -89q0 -57 -40.5 -92.5
t-106.5 -35.5q-64 0 -104.5 36t-40.5 100q0 50 54 128l88 126h82l-115 -149q20 11 54 11zM408 215q37 0 58.5 20.5t21.5 50.5t-21.5 50t-58.5 20q-38 0 -59.5 -20t-21.5 -50t21.5 -50.5t59.5 -20.5z" />
    <glyph glyph-name="uni2786.ss01" 
d="M411 -10q-149 0 -254.5 105.5t-105.5 254.5t105.5 254.5t254.5 105.5t255 -105.5t106 -254.5t-106 -254.5t-255 -105.5zM411 29q133 0 226.5 94t93.5 227t-93.5 227t-226.5 94t-226 -94t-93 -227t93 -227t226 -94zM285 530h275v-47q-147 -127 -153 -338h-69
q3 112 41.5 197.5t86.5 128.5h-181v59z" />
    <glyph glyph-name="uni2787.ss01" 
d="M411 -10q-149 0 -254.5 105.5t-105.5 254.5t105.5 254.5t254.5 105.5t255 -105.5t106 -254.5t-106 -254.5t-255 -105.5zM411 29q133 0 226.5 94t93.5 227t-93.5 227t-226.5 94t-226 -94t-93 -227t93 -227t226 -94zM487 367q35 -9 57.5 -36t22.5 -62q0 -54 -43 -84
t-114 -30q-70 0 -112.5 30t-42.5 84q0 37 23.5 62.5t57.5 35.5v5q-59 23 -59 76q0 44 37.5 73t97.5 29t97 -28.5t37 -71.5q0 -27 -16.5 -47.5t-42.5 -30.5v-5zM411 498q-31 0 -50.5 -14t-19.5 -38q0 -26 21 -40.5t48 -14.5q29 0 50.5 14.5t21.5 40.5q0 24 -20 38t-51 14z
M410 208q40 0 62.5 16.5t22.5 45.5q0 27 -22 46.5t-63 19.5q-40 0 -61 -19.5t-21 -47.5t21 -44.5t61 -16.5z" />
    <glyph glyph-name="uni2788.ss01" 
d="M411 -10q-149 0 -254.5 105.5t-105.5 254.5t105.5 254.5t254.5 105.5t255 -105.5t106 -254.5t-106 -254.5t-255 -105.5zM411 29q133 0 226.5 94t93.5 227t-93.5 227t-226.5 94t-226 -94t-93 -227t93 -227t226 -94zM393 292q-58 0 -93.5 35t-35.5 89q0 57 40.5 92.5
t106.5 35.5q64 0 104.5 -36t40.5 -100q0 -50 -54 -128l-88 -126h-82l115 149q-20 -11 -54 -11zM409 488q-37 0 -58.5 -20.5t-21.5 -50.5t21.5 -50t58.5 -20q38 0 59.5 20t21.5 50t-21.5 50.5t-59.5 20.5z" />
    <glyph glyph-name="uni2789.ss01" 
d="M411 -10q-149 0 -254.5 105.5t-105.5 254.5t105.5 254.5t254.5 105.5t255 -105.5t106 -254.5t-106 -254.5t-255 -105.5zM411 29q133 0 226.5 94t93.5 227t-93.5 227t-226.5 94t-226 -94t-93 -227t93 -227t226 -94zM500 190q-55 0 -89.5 42t-34.5 115t34.5 115t88.5 42
t88.5 -42.5t34.5 -115.5t-34 -114.5t-88 -41.5zM273 193v199h-73v52h41q35 0 35 36v21h59v-308h-62zM500 248q29 0 44.5 26.5t15.5 71.5t-16 71t-45 26t-45 -26t-16 -71t16 -71.5t46 -26.5z" />
    <glyph glyph-name="zero.case" horiz-adv-x="626" 
d="M314 -10q-120 0 -191.5 91.5t-71.5 268.5q0 175 71.5 267.5t191.5 92.5q121 0 191.5 -92t70.5 -269t-70.5 -268t-191.5 -91zM315 93q65 0 102 64t37 192t-37.5 193t-102.5 65q-64 0 -102.5 -64.5t-38.5 -193.5t38.5 -192.5t103.5 -63.5z" />
    <glyph glyph-name="one.case" horiz-adv-x="350" 
d="M169 0v498h-141v89h67q86 0 86 79v34h100v-700h-112z" />
    <glyph glyph-name="two.case" horiz-adv-x="570" 
d="M346 288q-152 -89 -161 -188h329v-100h-463v44q0 96 50.5 172.5t143.5 128.5q88 50 123.5 83t35.5 80t-30 75.5t-82 28.5q-63 0 -93.5 -40.5t-34.5 -100.5h-112q0 42 14.5 83t42.5 76.5t76 57.5t109 22q99 0 162 -54.5t63 -146.5q0 -73 -45 -123.5t-128 -97.5z" />
    <glyph glyph-name="three.case" horiz-adv-x="583" 
d="M414 369q56 -20 87 -65.5t31 -106.5q0 -93 -64 -150t-174 -57q-114 0 -175.5 60.5t-67.5 160.5h106q4 -52 38 -87t95 -35q57 0 93 32t36 85q0 51 -35 84.5t-100 33.5h-35v91h36q53 0 84 28t31 73q0 43 -28.5 70.5t-76.5 27.5t-77.5 -27t-33.5 -73h-107q0 85 64.5 140.5
t157.5 55.5q88 0 146.5 -51.5t58.5 -128.5q0 -102 -90 -154v-7z" />
    <glyph glyph-name="four.case" horiz-adv-x="608" 
d="M579 246v-94h-122v-152h-105v152h-324v68l296 480h133v-454h122zM154 246h198v318h-11z" />
    <glyph glyph-name="five.case" horiz-adv-x="587" 
d="M311 462q102 0 164 -66t62 -172q0 -104 -69 -169t-175 -65q-110 0 -174.5 63t-67.5 160h109q5 -58 39 -92.5t92 -34.5q59 0 96.5 37.5t37.5 99.5q0 64 -36 106t-96 42q-42 0 -77 -19t-54 -53l-99 28l38 373h401v-103h-305l-19 -180q49 45 133 45z" />
    <glyph glyph-name="six.case" horiz-adv-x="581" 
d="M324 443q80 0 143 -61t63 -162q0 -102 -66.5 -166t-171.5 -64q-108 0 -174.5 66t-66.5 174q0 59 22.5 112.5t67.5 122.5l149 235h130l-195 -282q40 25 99 25zM292 83q60 0 96.5 40.5t36.5 99.5q0 57 -36 95.5t-96 38.5t-96.5 -39t-36.5 -95q0 -59 36.5 -99.5t95.5 -40.5z
" />
    <glyph glyph-name="seven.case" horiz-adv-x="542" 
d="M51 700h462v-80q-251 -235 -265 -620h-113q6 204 69.5 352t151.5 244h-305v104z" />
    <glyph glyph-name="eight.case" horiz-adv-x="595" 
d="M414 375q57 -19 93.5 -68t36.5 -115q0 -91 -69 -146.5t-178 -55.5q-112 0 -179 55t-67 146q0 69 38 117.5t93 66.5v7q-40 17 -68 57.5t-28 88.5q0 79 62.5 130.5t149.5 51.5q88 0 149.5 -50t61.5 -131q0 -50 -27 -89t-68 -58v-7zM298 621q-47 0 -77.5 -27t-30.5 -71
q0 -45 32 -73.5t75 -28.5t75.5 28.5t32.5 74.5q0 44 -30.5 70.5t-76.5 26.5zM296 84q57 0 95 31.5t38 83.5q0 50 -36 86.5t-96 36.5t-95.5 -36.5t-35.5 -87.5q0 -52 36.5 -83t93.5 -31z" />
    <glyph glyph-name="nine.case" horiz-adv-x="581" 
d="M266 257q-80 0 -143 61t-63 162q0 102 66.5 166t171.5 64q108 0 174.5 -66t66.5 -174q0 -59 -22.5 -112.5t-67.5 -122.5l-149 -235h-130l195 282q-40 -25 -99 -25zM298 617q-60 0 -96.5 -40.5t-36.5 -99.5q0 -57 36 -95.5t96 -38.5t96.5 39t36.5 95q0 59 -36.5 99.5
t-95.5 40.5z" />
    <glyph glyph-name="zero.case.zero" horiz-adv-x="626" 
d="M314 710q121 0 191.5 -92t70.5 -269t-70.5 -268t-191.5 -91q-120 0 -191.5 91.5t-71.5 268.5q0 175 71.5 267.5t191.5 92.5zM314 616q-69 0 -109.5 -67t-40.5 -200q0 -76 14 -132l227 359q-37 40 -91 40zM315 84q70 0 109.5 66t39.5 199q0 77 -14 133l-226 -359
q36 -39 91 -39z" />
    <glyph glyph-name="zero.lf" horiz-adv-x="586" 
d="M294 -10q-111 0 -177 84.5t-66 246.5q0 161 66 245.5t177 84.5t176 -84.5t65 -246.5q0 -163 -64.5 -246.5t-176.5 -83.5zM295 88q58 0 91 58t33 174t-33.5 174.5t-91.5 58.5t-92 -58.5t-34 -174.5q0 -117 34 -174.5t93 -57.5z" />
    <glyph glyph-name="one.lf" horiz-adv-x="335" 
d="M159 0v451h-131v85h62q80 0 80 74v30h96v-640h-107z" />
    <glyph glyph-name="two.lf" horiz-adv-x="535" 
d="M323 258q-69 -44 -102.5 -81.5t-37.5 -79.5h296v-97h-428v41q0 164 172 273q99 63 121 85q31 31 31 67q0 41 -27 66.5t-74 25.5q-56 0 -83.5 -36.5t-30.5 -89.5h-108q0 84 57.5 151.5t166.5 67.5q91 0 149.5 -50t58.5 -135q0 -66 -40 -111t-121 -97z" />
    <glyph glyph-name="three.lf" horiz-adv-x="547" 
d="M387 338q51 -17 80 -59t29 -98q0 -85 -59.5 -138t-160.5 -53q-105 0 -162.5 56.5t-62.5 148.5h101q4 -47 34.5 -78.5t84.5 -31.5q51 0 83 29t32 76q0 46 -31 75.5t-90 29.5h-32v88h34q47 0 75 24.5t28 64.5q0 39 -25.5 63.5t-68.5 24.5q-42 0 -68.5 -24.5t-30.5 -65.5
h-102q0 79 59.5 130t146.5 51q81 0 135 -46.5t54 -118.5q0 -94 -83 -141v-7z" />
    <glyph glyph-name="four.lf" horiz-adv-x="567" 
d="M538 228v-89h-113v-139h-100v139h-297v64l272 437h125v-412h113zM149 228h176v286h-9z" />
    <glyph glyph-name="five.lf" horiz-adv-x="551" 
d="M292 424q95 0 151.5 -60.5t56.5 -158.5q0 -96 -64 -155.5t-162 -59.5q-101 0 -160.5 57.5t-62.5 147.5h105q4 -52 34.5 -82.5t82.5 -30.5q53 0 86.5 33.5t33.5 89.5q0 57 -32.5 94t-85.5 37q-82 0 -117 -63l-95 27l34 340h371v-97h-279l-17 -160q45 41 120 41z" />
    <glyph glyph-name="six.lf" horiz-adv-x="545" 
d="M304 406q74 0 132 -56.5t58 -148.5q0 -93 -62 -152t-159 -59q-100 0 -161 60.5t-61 160.5q0 54 20.5 104t61.5 112l137 213h125l-179 -257q31 23 88 23zM274 78q53 0 86 36.5t33 89.5q0 51 -32.5 85.5t-86.5 34.5t-86.5 -34.5t-32.5 -85.5q0 -53 33 -89.5t86 -36.5z" />
    <glyph glyph-name="seven.lf" horiz-adv-x="506" 
d="M51 640h425v-76q-229 -217 -240 -564h-109q3 98 22.5 186t50 154.5t61.5 114.5t67 86h-277v99z" />
    <glyph glyph-name="eight.lf" horiz-adv-x="558" 
d="M387 344q53 -18 86.5 -62.5t33.5 -104.5q0 -85 -64 -136t-165 -51q-103 0 -165 50.5t-62 135.5q0 63 35 107.5t85 60.5v7q-37 16 -62 52.5t-25 80.5q0 72 57.5 119.5t137.5 47.5q82 0 139 -46t57 -120q0 -46 -25 -81.5t-63 -52.5v-7zM279 566q-42 0 -69 -23.5t-27 -63.5
q0 -41 28.5 -66t66.5 -25q39 0 68 25t29 67q0 39 -27 62.5t-69 23.5zM278 79q50 0 84 29t34 75q0 45 -32.5 78t-85.5 33t-84.5 -33t-31.5 -78q0 -47 33 -75.5t83 -28.5z" />
    <glyph glyph-name="nine.lf" horiz-adv-x="545" 
d="M249 229q-74 0 -132 56.5t-58 148.5q0 93 62 152t159 59q100 0 161 -60.5t61 -160.5q0 -54 -20.5 -104t-61.5 -112l-137 -213h-125l179 257q-31 -23 -88 -23zM279 557q-53 0 -86 -36.5t-33 -89.5q0 -51 32.5 -85.5t86.5 -34.5t86.5 34.5t32.5 85.5q0 53 -33 89.5
t-86 36.5z" />
    <glyph glyph-name="zero.lf.case" horiz-adv-x="626" 
d="M314 -10q-120 0 -191.5 91.5t-71.5 268.5q0 175 71.5 267.5t191.5 92.5q121 0 191.5 -92t70.5 -269t-70.5 -268t-191.5 -91zM315 93q65 0 102 64t37 192t-37.5 193t-102.5 65q-64 0 -102.5 -64.5t-38.5 -193.5t38.5 -192.5t103.5 -63.5z" />
    <glyph glyph-name="one.lf.case" horiz-adv-x="350" 
d="M169 0v498h-141v89h67q86 0 86 79v34h100v-700h-112z" />
    <glyph glyph-name="two.lf.case" horiz-adv-x="570" 
d="M346 288q-152 -89 -161 -188h329v-100h-463v44q0 96 50.5 172.5t143.5 128.5q88 50 123.5 83t35.5 80t-30 75.5t-82 28.5q-63 0 -93.5 -40.5t-34.5 -100.5h-112q0 42 14.5 83t42.5 76.5t76 57.5t109 22q99 0 162 -54.5t63 -146.5q0 -73 -45 -123.5t-128 -97.5z" />
    <glyph glyph-name="three.lf.case" horiz-adv-x="583" 
d="M414 369q56 -20 87 -65.5t31 -106.5q0 -93 -64 -150t-174 -57q-114 0 -175.5 60.5t-67.5 160.5h106q4 -52 38 -87t95 -35q57 0 93 32t36 85q0 51 -35 84.5t-100 33.5h-35v91h36q53 0 84 28t31 73q0 43 -28.5 70.5t-76.5 27.5t-77.5 -27t-33.5 -73h-107q0 85 64.5 140.5
t157.5 55.5q88 0 146.5 -51.5t58.5 -128.5q0 -102 -90 -154v-7z" />
    <glyph glyph-name="four.lf.case" horiz-adv-x="608" 
d="M579 246v-94h-122v-152h-105v152h-324v68l296 480h133v-454h122zM154 246h198v318h-11z" />
    <glyph glyph-name="five.lf.case" horiz-adv-x="587" 
d="M311 462q102 0 164 -66t62 -172q0 -104 -69 -169t-175 -65q-110 0 -174.5 63t-67.5 160h109q5 -58 39 -92.5t92 -34.5q59 0 96.5 37.5t37.5 99.5q0 64 -36 106t-96 42q-42 0 -77 -19t-54 -53l-99 28l38 373h401v-103h-305l-19 -180q49 45 133 45z" />
    <glyph glyph-name="six.lf.case" horiz-adv-x="581" 
d="M324 443q80 0 143 -61t63 -162q0 -102 -66.5 -166t-171.5 -64q-108 0 -174.5 66t-66.5 174q0 59 22.5 112.5t67.5 122.5l149 235h130l-195 -282q40 25 99 25zM292 83q60 0 96.5 40.5t36.5 99.5q0 57 -36 95.5t-96 38.5t-96.5 -39t-36.5 -95q0 -59 36.5 -99.5t95.5 -40.5z
" />
    <glyph glyph-name="seven.lf.case" horiz-adv-x="542" 
d="M51 700h462v-80q-251 -235 -265 -620h-113q6 204 69.5 352t151.5 244h-305v104z" />
    <glyph glyph-name="eight.lf.case" horiz-adv-x="595" 
d="M414 375q57 -19 93.5 -68t36.5 -115q0 -91 -69 -146.5t-178 -55.5q-112 0 -179 55t-67 146q0 69 38 117.5t93 66.5v7q-40 17 -68 57.5t-28 88.5q0 79 62.5 130.5t149.5 51.5q88 0 149.5 -50t61.5 -131q0 -50 -27 -89t-68 -58v-7zM298 621q-47 0 -77.5 -27t-30.5 -71
q0 -45 32 -73.5t75 -28.5t75.5 28.5t32.5 74.5q0 44 -30.5 70.5t-76.5 26.5zM296 84q57 0 95 31.5t38 83.5q0 50 -36 86.5t-96 36.5t-95.5 -36.5t-35.5 -87.5q0 -52 36.5 -83t93.5 -31z" />
    <glyph glyph-name="nine.lf.case" horiz-adv-x="581" 
d="M266 257q-80 0 -143 61t-63 162q0 102 66.5 166t171.5 64q108 0 174.5 -66t66.5 -174q0 -59 -22.5 -112.5t-67.5 -122.5l-149 -235h-130l195 282q-40 -25 -99 -25zM298 617q-60 0 -96.5 -40.5t-36.5 -99.5q0 -57 36 -95.5t96 -38.5t96.5 39t36.5 95q0 59 -36.5 99.5
t-95.5 40.5z" />
    <glyph glyph-name="zero.tf" horiz-adv-x="546" 
d="M274 651q111 0 176 -84.5t65 -246.5q0 -163 -64.5 -246.5t-176.5 -83.5q-111 0 -177 84.5t-66 246.5q0 161 66 245.5t177 84.5zM275 560q-63 0 -99.5 -59.5t-36.5 -180.5q0 -69 12 -117l202 324q-31 33 -78 33zM275 81q63 0 98 59.5t35 179.5q0 70 -12 120l-202 -324
q32 -35 81 -35z" />
    <glyph glyph-name="one.tf" horiz-adv-x="546" 
d="M349 87h142v-87h-419v87h170v364h-131v85h62q80 0 80 74v30h96v-553z" />
    <glyph glyph-name="two.tf" horiz-adv-x="546" 
d="M325 258q-69 -44 -102.5 -81.5t-37.5 -79.5h296v-97h-428v41q0 164 172 273q99 63 121 85q31 31 31 67q0 41 -27 66.5t-74 25.5q-56 0 -83.5 -36.5t-30.5 -89.5h-108q0 84 57.5 151.5t166.5 67.5q91 0 149.5 -50t58.5 -135q0 -66 -40 -111t-121 -97z" />
    <glyph glyph-name="three.tf" horiz-adv-x="546" 
d="M387 338q51 -17 80 -59t29 -98q0 -85 -59.5 -138t-160.5 -53q-105 0 -162.5 56.5t-62.5 148.5h101q4 -47 34.5 -78.5t84.5 -31.5q51 0 83 29t32 76q0 46 -31 75.5t-90 29.5h-32v88h34q47 0 75 24.5t28 64.5q0 39 -25.5 63.5t-68.5 24.5q-42 0 -68.5 -24.5t-30.5 -65.5
h-102q0 79 59.5 130t146.5 51q81 0 135 -46.5t54 -118.5q0 -94 -83 -141v-7z" />
    <glyph glyph-name="four.tf" horiz-adv-x="546" 
d="M524 228v-89h-113v-139h-100v139h-297v64l272 437h125v-412h113zM135 228h176v286h-9z" />
    <glyph glyph-name="five.tf" horiz-adv-x="546" 
d="M298 424q95 0 151.5 -60.5t56.5 -158.5q0 -96 -64 -155.5t-162 -59.5q-101 0 -160.5 57.5t-62.5 147.5h105q4 -52 34.5 -82.5t82.5 -30.5q53 0 86.5 33.5t33.5 89.5q0 57 -32.5 94t-85.5 37q-82 0 -117 -63l-95 27l34 340h371v-97h-279l-17 -160q45 41 120 41z" />
    <glyph glyph-name="six.tf" horiz-adv-x="546" 
d="M306 406q74 0 132 -56.5t58 -148.5q0 -93 -62 -152t-159 -59q-100 0 -161 60.5t-61 160.5q0 54 20.5 104t61.5 112l137 213h125l-179 -257q31 23 88 23zM276 78q53 0 86 36.5t33 89.5q0 51 -32.5 85.5t-86.5 34.5t-86.5 -34.5t-32.5 -85.5q0 -53 33 -89.5t86 -36.5z" />
    <glyph glyph-name="seven.tf" horiz-adv-x="546" 
d="M71 640h425v-76q-229 -217 -240 -564h-109q3 98 22.5 186t50 154.5t61.5 114.5t67 86h-277v99z" />
    <glyph glyph-name="eight.tf" horiz-adv-x="546" 
d="M381 344q53 -18 86.5 -62.5t33.5 -104.5q0 -85 -64 -136t-165 -51q-103 0 -165 50.5t-62 135.5q0 63 35 107.5t85 60.5v7q-37 16 -62 52.5t-25 80.5q0 72 57.5 119.5t137.5 47.5q82 0 139 -46t57 -120q0 -46 -25 -81.5t-63 -52.5v-7zM273 566q-42 0 -69 -23.5t-27 -63.5
q0 -41 28.5 -66t66.5 -25q39 0 68 25t29 67q0 39 -27 62.5t-69 23.5zM272 79q50 0 84 29t34 75q0 45 -32.5 78t-85.5 33t-84.5 -33t-31.5 -78q0 -47 33 -75.5t83 -28.5z" />
    <glyph glyph-name="nine.tf" horiz-adv-x="546" 
d="M241 229q-74 0 -132 56.5t-58 148.5q0 93 62 152t159 59q100 0 161 -60.5t61 -160.5q0 -54 -20.5 -104t-61.5 -112l-137 -213h-125l179 257q-31 -23 -88 -23zM271 557q-53 0 -86 -36.5t-33 -89.5q0 -51 32.5 -85.5t86.5 -34.5t86.5 34.5t32.5 85.5q0 53 -33 89.5
t-86 36.5z" />
    <glyph glyph-name="zero.tf.case" horiz-adv-x="577" 
d="M289 710q121 0 191.5 -92t70.5 -269t-70.5 -268t-191.5 -91q-120 0 -191.5 91.5t-71.5 268.5q0 175 71.5 267.5t191.5 92.5zM289 616q-69 0 -109.5 -67t-40.5 -200q0 -76 14 -132l227 359q-37 40 -91 40zM290 84q70 0 109.5 66t39.5 199q0 77 -14 133l-226 -359
q36 -39 91 -39z" />
    <glyph glyph-name="one.tf.case" horiz-adv-x="577" 
d="M367 91h153v-91h-451v91h186v407h-141v89h67q86 0 86 79v34h100v-609z" />
    <glyph glyph-name="two.tf.case" horiz-adv-x="577" 
d="M351 288q-152 -89 -161 -188h329v-100h-463v44q0 96 50.5 172.5t143.5 128.5q88 50 123.5 83t35.5 80t-30 75.5t-82 28.5q-63 0 -93.5 -40.5t-34.5 -100.5h-112q0 42 14.5 83t42.5 76.5t76 57.5t109 22q99 0 162 -54.5t63 -146.5q0 -73 -45 -123.5t-128 -97.5z" />
    <glyph glyph-name="three.tf.case" horiz-adv-x="577" 
d="M409 369q56 -20 87 -65.5t31 -106.5q0 -93 -64 -150t-174 -57q-114 0 -175.5 60.5t-67.5 160.5h106q4 -52 38 -87t95 -35q57 0 93 32t36 85q0 51 -35 84.5t-100 33.5h-35v91h36q53 0 84 28t31 73q0 43 -28.5 70.5t-76.5 27.5t-77.5 -27t-33.5 -73h-107q0 85 64.5 140.5
t157.5 55.5q88 0 146.5 -51.5t58.5 -128.5q0 -102 -90 -154v-7z" />
    <glyph glyph-name="four.tf.case" horiz-adv-x="577" 
d="M564 246v-94h-122v-152h-105v152h-324v68l296 480h133v-454h122zM139 246h198v318h-11z" />
    <glyph glyph-name="five.tf.case" horiz-adv-x="577" 
d="M317 462q102 0 164 -66t62 -172q0 -104 -69 -169t-175 -65q-110 0 -174.5 63t-67.5 160h109q5 -58 39 -92.5t92 -34.5q59 0 96.5 37.5t37.5 99.5q0 64 -36 106t-96 42q-42 0 -77 -19t-54 -53l-99 28l38 373h401v-103h-305l-19 -180q49 45 133 45z" />
    <glyph glyph-name="six.tf.case" horiz-adv-x="577" 
d="M325 443q80 0 143 -61t63 -162q0 -102 -66.5 -166t-171.5 -64q-108 0 -174.5 66t-66.5 174q0 59 22.5 112.5t67.5 122.5l149 235h130l-195 -282q40 25 99 25zM293 83q60 0 96.5 40.5t36.5 99.5q0 57 -36 95.5t-96 38.5t-96.5 -39t-36.5 -95q0 -59 36.5 -99.5t95.5 -40.5z
" />
    <glyph glyph-name="seven.tf.case" horiz-adv-x="577" 
d="M64 700h462v-80q-251 -235 -265 -620h-113q6 204 69.5 352t151.5 244h-305v104z" />
    <glyph glyph-name="eight.tf.case" horiz-adv-x="577" 
d="M410 375q57 -19 93.5 -68t36.5 -115q0 -91 -69 -146.5t-178 -55.5q-112 0 -179 55t-67 146q0 69 38 117.5t93 66.5v7q-40 17 -68 57.5t-28 88.5q0 79 62.5 130.5t149.5 51.5q88 0 149.5 -50t61.5 -131q0 -50 -27 -89t-68 -58v-7zM294 621q-47 0 -77.5 -27t-30.5 -71
q0 -45 32 -73.5t75 -28.5t75.5 28.5t32.5 74.5q0 44 -30.5 70.5t-76.5 26.5zM292 84q57 0 95 31.5t38 83.5q0 50 -36 86.5t-96 36.5t-95.5 -36.5t-35.5 -87.5q0 -52 36.5 -83t93.5 -31z" />
    <glyph glyph-name="nine.tf.case" horiz-adv-x="577" 
d="M263 257q-80 0 -143 61t-63 162q0 102 66.5 166t171.5 64q108 0 174.5 -66t66.5 -174q0 -59 -22.5 -112.5t-67.5 -122.5l-149 -235h-130l195 282q-40 -25 -99 -25zM295 617q-60 0 -96.5 -40.5t-36.5 -99.5q0 -57 36 -95.5t96 -38.5t96.5 39t36.5 95q0 59 -36.5 99.5
t-95.5 40.5z" />
    <glyph glyph-name="zero.zero" horiz-adv-x="586" 
d="M294 651q111 0 176 -84.5t65 -246.5q0 -163 -64.5 -246.5t-176.5 -83.5q-111 0 -177 84.5t-66 246.5q0 161 66 245.5t177 84.5zM295 560q-63 0 -99.5 -59.5t-36.5 -180.5q0 -69 12 -117l202 324q-31 33 -78 33zM295 81q63 0 98 59.5t35 179.5q0 70 -12 120l-202 -324
q32 -35 81 -35z" />
    <glyph glyph-name="zero.dnom" horiz-adv-x="370" 
d="M186 -4q-68 0 -111 52.5t-43 143.5t43 144t110 53t110 -53t43 -145q0 -91 -43 -143t-109 -52zM186 66q37 0 58.5 33t21.5 92q0 58 -21.5 92t-59.5 34q-39 0 -60 -34t-21 -92t21.5 -91.5t60.5 -33.5z" />
    <glyph glyph-name="one.dnom" horiz-adv-x="242" 
d="M118 0v253h-91v61h51q43 0 43 45v26h69v-385h-72z" />
    <glyph glyph-name="two.dnom" horiz-adv-x="334" 
d="M202 157q-90 -50 -92 -96h190v-61h-268v25q0 103 101 162q9 5 23.5 13t21.5 12.5t17 11t15 11t10.5 11t7.5 13.5t2 15q0 23 -15.5 38t-42.5 15q-32 0 -49 -20.5t-19 -48.5h-71q0 51 36.5 91.5t106.5 40.5q53 0 89.5 -30.5t36.5 -79.5q0 -31 -17 -56.5t-35 -38t-48 -28.5z
" />
    <glyph glyph-name="three.dnom" horiz-adv-x="343" 
d="M239 203q32 -9 52 -35t20 -59q0 -51 -38 -83t-108 -32q-69 0 -104 35t-39 91h68q2 -28 22 -47.5t55 -19.5q34 0 54.5 16.5t20.5 42.5q0 29 -22.5 45.5t-61.5 16.5h-18v57h21q31 0 49 14t18 36t-16.5 36t-42.5 14t-43 -14t-20 -37h-68q0 48 38 79t94 31q55 0 91 -28.5
t36 -70.5q0 -53 -58 -83v-5z" />
    <glyph glyph-name="four.dnom" horiz-adv-x="368" 
d="M345 139v-58h-65v-81h-63v81h-190v38l160 266h93v-246h65zM105 139h112v171h-6z" />
    <glyph glyph-name="five.dnom" horiz-adv-x="350" 
d="M184 255q61 0 97.5 -37.5t36.5 -94.5q0 -58 -40 -93t-104 -35q-68 0 -105 36.5t-37 86.5h67q2 -30 23 -48t53 -18q33 0 54.5 20.5t21.5 51.5q0 33 -20.5 55.5t-56.5 22.5q-45 0 -71 -39l-63 17l21 205h237v-60h-180l-11 -93q29 23 77 23z" />
    <glyph glyph-name="six.dnom" horiz-adv-x="356" 
d="M195 247q58 0 93.5 -35t35.5 -89q0 -57 -40.5 -92.5t-106.5 -35.5q-64 0 -104.5 36t-40.5 100q0 50 54 128l88 126h82l-115 -149q20 11 54 11zM179 51q37 0 58.5 20.5t21.5 50.5t-21.5 50t-58.5 20q-38 0 -59.5 -20t-21.5 -50t21.5 -50.5t59.5 -20.5z" />
    <glyph glyph-name="seven.dnom" horiz-adv-x="325" 
d="M27 385h275v-47q-147 -127 -153 -338h-69q3 112 41.5 197.5t86.5 128.5h-181v59z" />
    <glyph glyph-name="eight.dnom" horiz-adv-x="376" 
d="M264 207q35 -9 57.5 -36t22.5 -62q0 -54 -43 -84t-114 -30q-70 0 -112.5 30t-42.5 84q0 37 23.5 62.5t57.5 35.5v5q-59 23 -59 76q0 44 37.5 73t97.5 29t97 -28.5t37 -71.5q0 -27 -16.5 -47.5t-42.5 -30.5v-5zM188 338q-31 0 -50.5 -14t-19.5 -38q0 -26 21 -40.5
t48 -14.5q29 0 50.5 14.5t21.5 40.5q0 24 -20 38t-51 14zM187 48q40 0 62.5 16.5t22.5 45.5q0 27 -22 46.5t-63 19.5q-40 0 -61 -19.5t-21 -47.5t21 -44.5t61 -16.5z" />
    <glyph glyph-name="nine.dnom" horiz-adv-x="356" 
d="M161 138q-58 0 -93.5 35t-35.5 89q0 57 40.5 92.5t106.5 35.5q64 0 104.5 -36t40.5 -100q0 -50 -54 -128l-88 -126h-82l115 149q-20 -11 -54 -11zM177 334q-37 0 -58.5 -20.5t-21.5 -50.5t21.5 -50t58.5 -20q38 0 59.5 20t21.5 50t-21.5 50.5t-59.5 20.5z" />
    <glyph glyph-name="zero.numr" horiz-adv-x="370" 
d="M186 251q-68 0 -111 52.5t-43 143.5t43 144t110 53t110 -53t43 -145q0 -91 -43 -143t-109 -52zM186 321q37 0 58.5 33t21.5 92q0 58 -21.5 92t-59.5 34q-39 0 -60 -34t-21 -92t21.5 -91.5t60.5 -33.5z" />
    <glyph glyph-name="one.numr" horiz-adv-x="242" 
d="M118 255v253h-91v61h51q43 0 43 45v26h69v-385h-72z" />
    <glyph glyph-name="two.numr" horiz-adv-x="334" 
d="M202 412q-90 -50 -92 -96h190v-61h-268v25q0 103 101 162q9 5 23.5 13t21.5 12.5t17 11t15 11t10.5 11t7.5 13.5t2 15q0 23 -15.5 38t-42.5 15q-32 0 -49 -20.5t-19 -48.5h-71q0 51 36.5 91.5t106.5 40.5q53 0 89.5 -30.5t36.5 -79.5q0 -31 -17 -56.5t-35 -38t-48 -28.5z
" />
    <glyph glyph-name="three.numr" horiz-adv-x="343" 
d="M239 458q32 -9 52 -35t20 -59q0 -51 -38 -83t-108 -32q-69 0 -104 35t-39 91h68q2 -28 22 -47.5t55 -19.5q34 0 54.5 16.5t20.5 42.5q0 29 -22.5 45.5t-61.5 16.5h-18v57h21q31 0 49 14t18 36t-16.5 36t-42.5 14t-43 -14t-20 -37h-68q0 48 38 79t94 31q55 0 91 -28.5
t36 -70.5q0 -53 -58 -83v-5z" />
    <glyph glyph-name="four.numr" horiz-adv-x="368" 
d="M345 394v-58h-65v-81h-63v81h-190v38l160 266h93v-246h65zM105 394h112v171h-6z" />
    <glyph glyph-name="five.numr" horiz-adv-x="350" 
d="M184 507q61 0 97.5 -37.5t36.5 -94.5q0 -58 -40 -93t-104 -35q-68 0 -105 36.5t-37 86.5h67q2 -30 23 -48t53 -18q33 0 54.5 20.5t21.5 51.5q0 33 -20.5 55.5t-56.5 22.5q-45 0 -71 -39l-63 17l21 205h237v-60h-180l-11 -93q29 23 77 23z" />
    <glyph glyph-name="six.numr" horiz-adv-x="356" 
d="M195 502q58 0 93.5 -35t35.5 -89q0 -57 -40.5 -92.5t-106.5 -35.5q-64 0 -104.5 36t-40.5 100q0 50 54 128l88 126h82l-115 -149q20 11 54 11zM179 306q37 0 58.5 20.5t21.5 50.5t-21.5 50t-58.5 20q-38 0 -59.5 -20t-21.5 -50t21.5 -50.5t59.5 -20.5z" />
    <glyph glyph-name="seven.numr" horiz-adv-x="325" 
d="M27 640h275v-47q-147 -127 -153 -338h-69q3 112 41.5 197.5t86.5 128.5h-181v59z" />
    <glyph glyph-name="eight.numr" horiz-adv-x="376" 
d="M264 462q35 -9 57.5 -36t22.5 -62q0 -54 -43 -84t-114 -30q-70 0 -112.5 30t-42.5 84q0 37 23.5 62.5t57.5 35.5v5q-59 23 -59 76q0 44 37.5 73t97.5 29t97 -28.5t37 -71.5q0 -27 -16.5 -47.5t-42.5 -30.5v-5zM188 593q-31 0 -50.5 -14t-19.5 -38q0 -26 21 -40.5
t48 -14.5q29 0 50.5 14.5t21.5 40.5q0 24 -20 38t-51 14zM187 303q40 0 62.5 16.5t22.5 45.5q0 27 -22 46.5t-63 19.5q-40 0 -61 -19.5t-21 -47.5t21 -44.5t61 -16.5z" />
    <glyph glyph-name="nine.numr" horiz-adv-x="356" 
d="M161 395q-58 0 -93.5 35t-35.5 89q0 57 40.5 92.5t106.5 35.5q64 0 104.5 -36t40.5 -100q0 -50 -54 -128l-88 -126h-82l115 149q-20 -11 -54 -11zM177 591q-37 0 -58.5 -20.5t-21.5 -50.5t21.5 -50t58.5 -20q38 0 59.5 20t21.5 50t-21.5 50.5t-59.5 20.5z" />
    <glyph glyph-name="fraction.ss01" horiz-adv-x="255" 
d="M398 640l-498 -640h-44l498 640h44z" />
    <glyph glyph-name="onehalf.ss01" horiz-adv-x="731" 
d="M118 255v253h-91v61h51q43 0 43 45v26h69v-385h-72zM611 640l-498 -640h-44l498 640h44zM599 157q-90 -50 -92 -96h190v-61h-268v25q0 103 101 162q9 5 23.5 13t21.5 12.5t17 11t15 11t10.5 11t7.5 13.5t2 15q0 23 -15.5 38t-42.5 15q-32 0 -49 -20.5t-19 -48.5h-71
q0 51 36.5 91.5t106.5 40.5q53 0 89.5 -30.5t36.5 -79.5q0 -31 -17 -56.5t-35 -38t-48 -28.5z" />
    <glyph glyph-name="uni2153.ss01" horiz-adv-x="748" 
d="M118 255v253h-91v61h51q43 0 43 45v26h69v-385h-72zM611 640l-498 -640h-44l498 640h44zM644 203q32 -9 52 -35t20 -59q0 -51 -38 -83t-108 -32q-68 0 -103.5 35t-39.5 91h68q2 -28 22 -47.5t55 -19.5q34 0 54.5 16.5t20.5 42.5q0 29 -22.5 45.5t-61.5 16.5h-18v57h21
q31 0 49 14t18 36t-16.5 36t-42.5 14t-43 -14t-20 -37h-68q0 48 38 79t94 31q55 0 91 -28.5t36 -70.5q0 -53 -58 -83v-5z" />
    <glyph glyph-name="uni2154.ss01" horiz-adv-x="848" 
d="M202 412q-90 -50 -92 -96h190v-61h-268v25q0 103 101 162q9 5 23.5 13t21.5 12.5t17 11t15 11t10.5 11t7.5 13.5t2 15q0 23 -15.5 38t-42.5 15q-32 0 -49 -20.5t-19 -48.5h-71q0 51 36.5 91.5t106.5 40.5q53 0 89.5 -30.5t36.5 -79.5q0 -31 -17 -56.5t-35 -38t-48 -28.5z
M711 640l-498 -640h-44l498 640h44zM744 203q32 -9 52 -35t20 -59q0 -51 -38 -83t-108 -32q-68 0 -103.5 35t-39.5 91h68q2 -28 22 -47.5t55 -19.5q34 0 54.5 16.5t20.5 42.5q0 29 -22.5 45.5t-61.5 16.5h-18v57h21q31 0 49 14t18 36t-16.5 36t-42.5 14t-43 -14t-20 -37h-68
q0 48 38 79t94 31q55 0 91 -28.5t36 -70.5q0 -53 -58 -83v-5z" />
    <glyph glyph-name="onequarter.ss01" horiz-adv-x="703" 
d="M118 255v253h-91v61h51q43 0 43 45v26h69v-385h-72zM611 640l-498 -640h-44l498 640h44zM680 139v-58h-65v-81h-63v81h-190v38l160 266h93v-246h65zM440 139h112v171h-6z" />
    <glyph glyph-name="threequarters.ss01" horiz-adv-x="777" 
d="M239 458q32 -9 52 -35t20 -59q0 -51 -38 -83t-108 -32q-69 0 -104 35t-39 91h68q2 -28 22 -47.5t55 -19.5q34 0 54.5 16.5t20.5 42.5q0 29 -22.5 45.5t-61.5 16.5h-18v57h21q31 0 49 14t18 36t-16.5 36t-42.5 14t-43 -14t-20 -37h-68q0 48 38 79t94 31q55 0 91 -28.5
t36 -70.5q0 -53 -58 -83v-5zM685 640l-498 -640h-44l498 640h44zM754 139v-58h-65v-81h-63v81h-190v38l160 266h93v-246h65zM514 139h112v171h-6z" />
    </font>
</defs>
</svg>
